<?xml version="1.0" standalone="no"?>
<!DOCTYPE svg PUBLIC "-//W3C//DTD SVG 1.1//EN" "http://www.w3.org/Graphics/SVG/1.1/DTD/svg11.dtd" >
<svg xmlns="http://www.w3.org/2000/svg">
<metadata>
<json>
<![CDATA[
{
	"fontFamily": "gonzocons",
	"majorVersion": 2,
	"minorVersion": 0,
	"fontURL": "http://www.gonzodesign.nl",
	"description": "gonzocons 2.0\nFont generated by IcoMoon.",
	"copyright": "Royalty Free",
	"designer": "Jan Rajtoral",
	"designerURL": "http://rajtoral.com",
	"license": "none",
	"version": "Version 2.0",
	"fontId": "gonzocons",
	"psName": "gonzocons",
	"subFamily": "Regular",
	"fullName": "gonzocons"
}
]]>
</json>
</metadata>
<defs>
<font id="gonzocons" horiz-adv-x="1024">
<font-face units-per-em="1024" ascent="960" descent="-64" />
<missing-glyph horiz-adv-x="1024" />
<glyph unicode="&#x20;" horiz-adv-x="512" d="" />
<glyph unicode="&#xe900;" glyph-name="antenna" data-tags="antenna" d="M578.637 436.805c29.082 20.659 48.128 54.554 48.128 92.826 0 62.771-51.046 113.818-113.766 113.818-62.746 0-113.792-51.046-113.792-113.818 0-38.272 19.072-72.192 48.154-92.851l-128.205-369.459c-3.379-9.677 1.741-20.25 11.443-23.654 1.971-0.64 4.045-0.998 6.042-0.998 7.68 0 14.874 4.813 17.51 12.493l26.112 75.085h265.472l26.035-75.085c2.637-7.706 9.856-12.493 17.562-12.493 1.997 0 4.019 0.358 6.067 0.998 9.677 3.405 14.797 13.978 11.418 23.654l-128.179 369.485zM512.973 606.097c42.138 0 76.442-34.304 76.442-76.467 0-42.138-34.304-76.442-76.442-76.442-42.163 0-76.442 34.304-76.442 76.442 0 42.163 34.278 76.467 76.442 76.467zM512.973 415.838c11.136 0 21.862 1.638 32.051 4.634l41.037-118.323h-146.15l41.062 118.323c10.163-2.995 20.89-4.634 32-4.634zM393.114 167.365l33.894 97.638h171.904l33.92-97.638h-239.718zM361.472 385.272c3.635-3.635 8.371-5.427 13.082-5.427 4.787 0 9.549 1.792 13.184 5.427 7.219 7.245 7.219 19.021 0 26.24-31.59 31.514-48.973 73.472-48.973 118.093s17.357 86.554 48.922 118.093c7.219 7.245 7.219 18.995 0 26.266-7.296 7.219-19.021 7.219-26.24 0-38.579-38.554-59.802-89.805-59.802-144.358-0.026-54.502 21.222-105.779 59.827-144.333zM322.074 345.925c-49.126 49.050-76.134 114.304-76.134 183.706 0 69.376 27.008 134.63 76.109 183.757 7.245 7.245 7.245 18.995 0 26.24-7.27 7.245-19.021 7.219-26.24-0.026-56.090-56.090-86.989-130.662-86.989-209.971s30.925-153.882 87.040-209.971c3.635-3.635 8.346-5.427 13.107-5.427s9.523 1.792 13.133 5.427c7.219 7.27 7.219 18.995-0.026 26.266zM153.139 529.605c0 94.157 36.659 182.707 103.27 249.37 7.245 7.245 7.245 18.995 0 26.24s-19.021 7.245-26.24 0c-73.626-73.651-114.176-171.52-114.176-275.61 0-104.064 40.55-201.958 114.176-275.61 3.635-3.61 8.371-5.402 13.133-5.402s9.523 1.792 13.133 5.402c7.245 7.27 7.245 19.046 0 26.266-66.611 66.662-103.296 155.213-103.296 249.344zM685.261 529.605c0-44.595-17.382-86.528-48.922-118.067-7.219-7.219-7.219-18.97 0-26.214 3.635-3.635 8.397-5.453 13.158-5.453 4.736 0 9.472 1.818 13.107 5.453 38.579 38.554 59.827 89.805 59.827 144.307 0 54.554-21.274 105.83-59.853 144.384-7.245 7.245-18.97 7.219-26.266 0-7.219-7.245-7.219-18.995 0.026-26.24 31.539-31.565 48.922-73.523 48.922-118.17zM728.192 739.627c-7.296 7.245-19.046 7.219-26.266-0.026-7.27-7.245-7.27-18.995 0-26.214 49.075-49.075 76.109-114.33 76.109-183.757 0-69.35-27.008-134.605-76.058-183.757-7.27-7.219-7.27-18.944 0-26.214 3.635-3.635 8.397-5.427 13.133-5.427 4.762 0 9.523 1.792 13.133 5.427 56.064 56.115 86.963 130.688 86.963 209.971 0 79.334-30.925 153.907-87.014 209.997zM793.779 805.24c-7.219 7.219-18.97 7.219-26.24 0-7.245-7.245-7.245-19.021 0-26.24 66.637-66.637 103.347-155.213 103.347-249.37 0-94.131-36.71-182.682-103.296-249.344-7.245-7.245-7.245-18.97 0-26.24 3.61-3.61 8.371-5.402 13.133-5.402 4.736 0 9.498 1.792 13.133 5.402 73.626 73.702 114.15 171.546 114.15 275.61-0.026 104.064-40.576 201.933-114.227 275.584z" />
<glyph unicode="&#xe901;" glyph-name="archive" data-tags="archive" d="M894.694 385.605l-124.621 345.139c-2.714 7.603-9.984 12.698-18.074 12.698h-480c-8.064 0-15.309-5.094-18.048-12.698l-124.646-345.139c-0.819-2.15-1.28-4.429-1.306-6.835v0c0-0.051 0-0.051 0-0.051v0 0-249.626c0-10.598 8.602-19.2 19.2-19.2h729.6c10.624 0 19.2 8.602 19.2 19.2v249.626c0 0 0 0 0 0.051v0c0 2.406-0.461 4.685-1.306 6.835zM285.466 705.067h453.094l110.925-307.2h-43.059l-51.814 153.702c-2.662 7.808-9.958 13.056-18.202 13.056h-436.634c-8.038 0-15.258-5.043-18.022-12.595l-56.499-154.163h-50.688l110.899 307.2zM765.901 397.867h-109.901c-7.245 0-13.901-4.096-17.152-10.598l-42.701-85.402h-168.269l-42.701 85.402c-3.251 6.502-9.907 10.598-17.178 10.598h-101.837l47.027 128.358h409.395l43.315-128.358zM857.6 148.293h-691.2v211.174h189.747l42.701-85.376c3.251-6.502 9.907-10.598 17.152-10.598h192c7.296 0 13.952 4.096 17.203 10.598l42.701 85.376h189.696v-211.174z" />
<glyph unicode="&#xe902;" glyph-name="arrow-down" data-tags="arrow-down" d="M863.667 450.449c-8.832 8.627-23.014 8.499-31.667-0.358l-297.6-303.616v616.192c0 12.365-10.035 22.4-22.4 22.4-12.339 0-22.4-10.035-22.4-22.4v-618.112l-297.6 303.642c-8.653 8.832-22.835 8.986-31.667 0.333s-8.986-22.835-0.333-31.667l335.104-341.862c4.198-4.301 9.958-6.733 16-6.733 0.128 0 0.307 0.026 0.461 0.026s0.282-0.026 0.435-0.026c8.192 0 15.334 4.403 19.251 10.957l332.749 339.507c8.653 8.832 8.499 23.040-0.333 31.718z" />
<glyph unicode="&#xe903;" glyph-name="arrow-left" data-tags="arrow-left" d="M848 449.067h-618.112l303.642 297.6c8.832 8.653 8.986 22.835 0.333 31.667s-22.835 8.96-31.667 0.307l-341.888-335.053c-4.275-4.198-6.707-9.984-6.707-16.026 0-0.128 0-0.282 0-0.435 0-0.179 0-0.307 0-0.461 0-8.166 4.378-15.309 10.931-19.226l339.533-332.774c4.352-4.275 10.035-6.4 15.693-6.4 5.811 0 11.597 2.253 16 6.707 8.653 8.858 8.499 23.040-0.333 31.693l-303.616 297.6h616.192c12.339 0 22.4 10.035 22.4 22.4s-10.061 22.4-22.4 22.4z" />
<glyph unicode="&#xe904;" glyph-name="arrow-right" data-tags="arrow-right" d="M870.4 426.667c0 8.192-4.403 15.334-10.957 19.226l-339.507 332.774c-8.832 8.653-23.014 8.525-31.667-0.307s-8.576-23.014 0.282-31.693l303.642-297.6h-616.192c-12.339 0-22.4-10.035-22.4-22.4s10.061-22.4 22.4-22.4h618.112l-303.667-297.6c-8.806-8.678-8.96-22.861-0.307-31.693 4.403-4.454 10.214-6.707 16-6.707 5.658 0 11.315 2.125 15.667 6.4l341.837 335.078c4.301 4.198 6.758 9.984 6.758 16.026 0 0.128-0.026 0.282-0.026 0.435 0 0.179 0.026 0.307 0.026 0.461z" />
<glyph unicode="&#xe905;" glyph-name="arrow-up" data-tags="arrow-up" d="M864 436.497l-335.104 341.862c-4.198 4.275-9.958 6.707-15.949 6.707-0.179 0-0.358-0.026-0.512-0.026s-0.282 0.026-0.435 0.026c-8.192 0-15.309-4.403-19.226-10.957l-332.774-339.507c-8.653-8.832-8.499-23.014 0.333-31.667 4.378-4.275 10.010-6.4 15.667-6.4 5.811 0.026 11.622 2.253 16 6.733l297.6 303.616v-616.192c0-12.365 10.061-22.426 22.4-22.426 12.365 0 22.4 10.061 22.4 22.4v618.086l297.6-303.616c8.653-8.832 22.861-8.96 31.667-0.333 8.832 8.678 8.986 22.886 0.333 31.693z" />
<glyph unicode="&#xe906;" glyph-name="article" data-tags="article" d="M331.93 496.76c-12.365 0-22.477-10.112-22.477-22.477s10.112-22.451 22.477-22.451h346.061c12.365 0 22.477 10.086 22.477 22.451s-10.112 22.477-22.477 22.477h-346.061zM240.922 42.667c-10.522 0-19.43 8.755-19.43 19.098v729.498c0 10.701 8.704 19.405 19.43 19.405h376.422c5.12 0 10.112-2.15 14.003-6.042l165.094-165.402c3.84-3.328 6.042-8.294 6.042-13.67v-563.763c0-10.342-8.934-19.098-19.43-19.098h-542.131zM260.352 81.169h503.603v524.979h-146.611c-10.675 0-19.405 8.704-19.405 19.379v146.637h-337.587v-690.995zM636.8 644.651h99.84l-99.84 100.224v-100.224zM331.93 396.869c-12.365 0-22.477-10.112-22.477-22.477s10.112-22.477 22.477-22.477h346.061c12.365 0 22.477 10.112 22.477 22.477s-10.112 22.477-22.477 22.477h-346.061zM331.93 297.003c-12.365 0-22.477-10.112-22.477-22.477 0-12.39 10.112-22.451 22.477-22.451h346.061c12.365 0 22.477 10.061 22.477 22.451 0 12.365-10.112 22.477-22.477 22.477h-346.061z" />
<glyph unicode="&#xe907;" glyph-name="at" data-tags="at" d="M512.256 797.867c-204.851 0-371.456-166.528-371.456-371.2 0-204.723 166.605-371.2 371.456-371.2 69.146 0 136.704 19.2 195.405 55.45 5.35 3.328 9.062 8.499 10.445 14.541 1.459 6.093 0.41 12.314-2.867 17.638-4.352 6.989-11.827 11.213-20.019 11.213-4.301 0-8.525-1.254-12.211-3.533-51.2-31.718-110.259-48.512-170.752-48.512-178.944 0-324.531 145.587-324.531 324.352 0 178.79 145.587 324.275 324.531 324.275 108.211 0 208.947-53.632 269.44-143.437 29.952-44.518 48.512-96.205 53.606-149.53 1.203-12.646 3.891-57.574-12.16-104.909-15.053-44.339-58.061-76.237-100.941-74.317-26.803 0.973-46.259 10.419-59.546 28.826-42.65 59.853-13.082 198.938 1.894 247.45 3.712 12.083-2.688 24.806-14.618 29.030-5.094 1.766-52.787 17.766-111.309 17.766-39.782 0-74.982-7.475-104.653-22.093-46.106-22.733-78.438-61.952-96.128-116.582-22.272-68.71-10.317-135.014 31.974-177.357 25.37-25.421 59.008-39.347 94.618-39.347 14.054 0 28.058 2.202 41.574 6.605 25.984 8.269 49.382 23.885 69.581 46.362l23.629 26.24 16.614-31.13c2.586-4.838 5.453-9.498 8.499-13.824 21.658-30.438 54.989-47.258 96.435-48.742 1.613-0.051 3.174-0.051 4.762-0.051 61.466 0 121.267 44.595 142.131 106.189 18.509 54.81 16.256 105.267 14.413 124.365-5.862 61.133-27.11 120.294-61.338 171.213-69.402 102.861-184.678 164.25-308.48 164.25zM464.358 293.189v0c-23.066 0-44.851 9.114-61.363 25.677-30.029 30.106-37.53 77.389-20.582 129.766 13.773 42.445 37.274 71.526 71.885 88.909 23.603 11.75 51.866 17.664 84.096 17.664 17.613 0 46.95-3.917 48.205-4.045l25.114-3.405-3.994-25.062c-0.333-1.997-8.115-50.15-21.606-103.885-15.462-61.773-50.765-107.162-94.464-121.267-9.011-2.893-18.176-4.352-27.29-4.352z" />
<glyph unicode="&#xe908;" glyph-name="attachment" data-tags="attachment" d="M852.122 469.624c-3.584 3.405-8.218 5.274-13.414 5.274-4.915-0.051-9.574-1.92-13.030-5.274l-326.17-316.109c-32.333-31.309-75.571-48.768-121.754-49.101h-1.382c-45.67 0-88.678 16.819-121.139 47.309-32.742 30.771-50.995 71.936-51.354 115.789-0.358 43.904 17.254 85.325 49.536 116.582l339.712 329.293c23.373 22.682 54.63 35.302 88.013 35.533h0.998c32.947 0 64.077-12.109 87.578-34.202 23.68-22.298 36.813-51.968 37.12-83.661 0.205-31.667-12.493-61.594-35.814-84.173l-339.763-329.318c-14.413-14.003-33.664-21.786-54.272-21.914h-0.614c-20.352 0-39.526 7.501-54.042 21.094-14.566 13.67-22.682 31.949-22.835 51.533-0.154 19.456 7.654 37.862 21.99 51.763l323.328 313.293c3.558 3.43 5.53 8.013 5.53 12.8 0 4.838-1.971 9.421-5.53 12.877-3.533 3.379-8.218 5.274-13.389 5.274-4.89-0.051-9.549-1.92-13.005-5.274l-323.405-313.37c-21.478-20.813-33.178-48.41-32.947-77.67 0.205-29.261 12.365-56.678 34.15-77.235 21.453-20.122 49.894-31.258 80.102-31.258h0.922c30.566 0.256 59.187 11.802 80.538 32.486l339.738 329.395c30.464 29.542 47.078 68.608 46.746 109.978-0.333 41.472-17.562 80.307-48.486 109.338-30.438 28.646-70.784 44.39-113.638 44.39h-1.306c-43.29-0.333-83.891-16.666-114.253-46.054l-339.738-329.318c-39.398-38.221-60.877-88.806-60.442-142.464 0.435-53.632 22.682-103.859 62.72-141.491 39.45-37.069 91.725-57.472 147.226-57.472h1.69c56.115 0.435 108.646 21.632 147.917 59.648l326.221 316.134c7.245 7.040 7.219 18.483-0.051 25.574z" />
<glyph unicode="&#xe909;" glyph-name="award" data-tags="award" d="M296.755 42.667c-9.984 0-18.074 8.115-18.074 18.125v129.126c0 9.958 8.090 18.074 18.074 18.074h43.034c45.466 0 76.749 23.962 95.59 73.19 10.266 26.88 13.67 54.323 14.797 68.326l0.461 5.734-5.299 2.253c-26.445 11.29-49.664 28.851-69.043 52.275-15.744 19.046-28.416 41.651-37.683 67.277l-3.251 8.96-8.269-4.736c-9.242-5.325-19.712-8.064-30.336-8.064-9.984 0-18.074 8.115-18.074 18.074 0 10.010 8.090 18.074 18.074 18.074 13.773 0 24.96 11.187 24.96 24.986 0 13.747-11.187 24.96-24.96 24.96h-43.059c-57.446 0-104.141 46.746-104.141 104.192 0 57.421 46.694 104.115 104.141 104.115 19.789 0 39.040-5.555 55.706-16.179l12.314-7.782v48.947c0 10.010 8.115 18.074 18.074 18.074h344.397c9.984 0 18.074-8.064 18.074-18.074v-48.947l12.288 7.782c16.666 10.624 35.917 16.179 55.731 16.179 57.421 0 104.141-46.694 104.141-104.115 0-57.446-46.72-104.192-104.141-104.192h-43.085c-13.747 0-24.96-11.213-24.96-24.96 0-13.798 11.213-24.986 24.96-24.986 9.984 0 18.074-8.064 18.074-18.074 0-9.958-8.090-18.074-18.074-18.074-10.598 0-21.069 2.739-30.336 8.064l-8.269 4.736-3.251-8.96c-9.216-25.626-21.888-48.23-37.709-67.277-19.405-23.424-42.598-41.037-69.018-52.224l-5.299-2.304 0.461-5.734c1.126-14.003 4.506-41.498 14.797-68.326 18.842-49.254 50.125-73.19 95.59-73.19h43.034c9.984 0 18.074-8.115 18.074-18.074v-129.126c0-10.010-8.090-18.125-18.074-18.125h-430.438zM709.171 78.865v92.979h-394.368v-92.979h394.368zM591.36 207.992l-10.24 12.979c-10.829 13.619-19.866 30.029-26.88 48.666-9.702 25.83-13.901 51.354-15.693 68.224l-0.845 7.962-7.962-0.87c-5.837-0.563-11.75-0.947-17.741-0.947-5.939 0-11.93 0.384-17.741 0.947l-7.962 0.87-0.845-7.962c-1.818-16.819-6.016-42.342-15.718-68.224-6.938-18.534-15.949-34.918-26.829-48.666l-10.214-12.979h158.669zM357.862 577.4c0-114.253 64.819-197.197 154.138-197.197s154.138 82.944 154.138 197.197v197.146h-308.275v-197.146zM253.696 731.461c-37.478 0-67.994-30.515-67.994-67.994 0-37.504 30.515-67.994 67.994-67.994h43.059c5.094 0 10.138-0.614 14.976-1.869l9.984-2.56v72.422c0 37.478-30.515 67.994-68.019 67.994v0zM770.304 731.461c-37.53 0-68.019-30.515-68.019-67.994v-72.422l10.010 2.56c4.813 1.254 9.856 1.869 14.95 1.869h43.085c37.504 0 67.994 30.49 67.994 67.994-0.026 37.478-30.515 67.994-68.019 67.994v0z" />
<glyph unicode="&#xe90a;" glyph-name="behance" data-tags="behance" d="M337.971 399.557h-115.354c-9.6 0-17.434-8.499-17.434-18.944v-115.712c0-10.394 7.834-18.944 17.434-18.944l109.926 0.051c41.062 0.947 64.64 28.365 64.64 75.162 0 26.854-7.526 48.41-21.811 62.31-15.283 14.899-32.486 16.077-37.402 16.077zM334.182 280.696h-98.97v84.096h105.498c4.403-0.102 26.394-2.534 26.394-43.725 0.026-36.506-17.024-40.013-32.922-40.371zM221.133 482.731h108.749c35.61 0 52.864 20.838 52.864 63.77 0 45.747-29.901 57.83-45.696 57.83h-115.917c-9.651 0-17.587-7.654-17.587-17.126v-87.347c0.026-9.421 7.936-17.126 17.587-17.126zM233.702 572.561h107.187c0.102 0 11.827-0.794 11.827-25.805 0-32.282-8.218-32.282-19.584-32.282h-99.43v58.086zM481.741 451.473l-3.482 2.278 3.149 2.662c17.331 14.925 37.965 43.315 37.965 94.131 0 96.077-63.104 158.208-160.768 158.208h-265.318c-9.088 0-16.486-7.731-16.486-17.178v-529.818c0-9.421 7.398-17.152 16.512-17.152h267.136c11.853 0 53.76 1.613 94.208 23.194 37.632 19.994 82.432 62.157 82.432 149.402 0.128 3.046 2.662 75.366-35.866 117.811-5.888 6.4-12.442 11.981-19.482 16.461zM504.115 318.123c0-56.73-21.683-96.998-64.486-119.782-33.843-18.022-70.323-19.43-80.64-19.43h-249.19v495.462h248.832c80 0 127.795-46.31 127.795-123.827 0-75.52-56.166-83.149-62.515-83.814-8.909-0.614-15.59-8.397-15.309-17.664 0.384-9.267 7.578-16.538 16.538-16.538 22.144 0 39.168-6.861 52.045-20.966 28.262-30.95 27.162-87.040 26.931-93.44zM752 518.597c-58.214-0.205-80.102-50.509-83.558-77.056-0.589-4.582 0.691-9.037 3.61-12.544 2.893-3.43 7.091-5.325 11.494-5.325l108.672 0.384 17.075-0.922c2.432-0.128 4.608 0.666 6.605 1.818 6.298 1.869 11.11 7.578 11.187 14.669-0.026 1.459-0.205 35.123-21.837 57.958-13.21 14.054-31.104 21.094-53.248 21.018zM701.645 454.315c6.861 15.334 21.197 33.536 50.688 33.638 14.362 0.051 25.088-3.891 32.896-11.981 5.094-5.35 8.986-12.518 11.392-21.299l-94.976-0.358zM945.562 355.089c0.563 4.787 14.106 115.61-47.872 189.005-33.818 40.090-82.918 60.314-145.971 60.314-109.747 0-161.869-60.467-186.24-111.283-24.525-50.918-26.061-102.554-26.138-108.314-0.256-4.403-5.658-108.339 57.754-178.56 36.864-40.832 88.653-61.44 154.010-61.44 0.87-0.051 3.584-0.256 7.706-0.256 37.581 0 161.766 9.318 182.118 129.408 0.538 5.862 0.87 12.006 0.87 18.33 0 9.472-7.398 17.152-16.512 17.152h-89.805c-4.326 0-8.576-1.869-11.725-5.248-1.869-1.92-3.072-4.582-5.069-10.88-1.587-6.323-4.506-11.904-8.806-16.512-9.037-9.446-23.731-14.336-43.622-14.336-3.354 0-6.81 0.154-10.368 0.486-33.050 2.304-67.61 13.005-73.472 73.856l-0.333 3.328h247.142c8.218 0 15.232 6.451 16.333 14.95zM913.946 377.413l-0.077-2.918h-248.909c-9.088 0-16.538-7.731-16.538-17.152 0-120.806 79.104-126.746 105.088-128.614 4.454-0.333 8.755-0.486 12.954-0.486 29.798 0 51.866 8.294 67.584 25.344 5.197 5.709 9.267 12.109 11.853 19.584l3.021 1.459 0.538 0.538h57.011l-0.794-3.738c-7.398-33.894-26.342-57.984-58.010-73.498-34.662-17.101-73.754-18.944-88.96-18.944l-6.989 0.102c-56.090 0-99.994 16.998-130.406 50.483-51.61 56.883-49.485 144.333-49.024 154.189 0.051 7.629 3.277 186.368 179.43 186.368 53.069 0 93.798-16.282 121.062-48.333 37.862-44.8 42.061-109.67 41.165-144.384zM646.861 627.371h200.218c8.755 0 15.821 7.373 15.821 16.486v48.384c0 9.088-7.066 16.512-15.821 16.512h-200.218c-8.704 0-15.795-7.424-15.795-16.512v-48.384c0-9.088 7.091-16.486 15.795-16.486zM662.707 667.409v11.085h169.216v-11.085h0.026l0.051-6.502-0.154-0.589h-169.114v7.091z" />
<glyph unicode="&#xe90b;" glyph-name="book" data-tags="book" d="M890.624 663.621c-3.43 3.43-8.090 5.35-12.928 5.35-0.051 0-0.051 0-0.051 0l-54.81-0.205v73.318c0 10.112-8.192 18.278-18.278 18.278h-22.886c-137.344 0-217.805-19.917-269.696-68.070-51.891 48.154-132.352 68.070-269.696 68.070h-22.861c-10.086 0-18.278-8.166-18.278-18.278v-73.318l-54.81 0.205c-4.966 0.026-9.549-1.92-12.979-5.35s-5.35-8.115-5.35-12.954v-470.861c0-10.112 8.192-18.278 18.304-18.278h22.861c246.067 0 298.65-55.526 303.846-61.926 3.482-4.173 8.653-6.656 14.157-6.656h49.664c5.53 0 10.701 2.483 14.182 6.656 5.171 6.4 57.779 61.926 303.846 61.926h22.861c10.112 0 18.304 8.166 18.304 18.278v470.861c-0.026 4.838-1.971 9.523-5.402 12.954zM164.582 198.085v434.253l36.582-0.154v-434.432c-10.342 0.23-20.992 0.333-32 0.333h-4.582zM237.722 196.574v453.709c0 0.051 0 0.102 0 0.205v73.318h4.582c133.658 0 207.386-18.893 251.392-64.87v-528.179c-24.218 22.246-88.858 58.061-255.974 65.818zM530.304 130.757v528.179c43.981 45.978 117.76 64.87 251.392 64.87h4.582v-527.232c-167.168-7.757-231.757-43.571-255.974-65.818zM859.418 198.085h-4.582c-11.034 0-21.658-0.102-32-0.333v434.432l36.582 0.154v-434.253z" />
<glyph unicode="&#xe90c;" glyph-name="bookmark" data-tags="bookmark" d="M274.893 29.867c-11.827 0-13.594 11.546-13.594 18.458v729.139c0 25.37 20.634 46.003 46.003 46.003h409.344c25.395 0 46.054-20.634 46.054-46.003v-729.139c0-5.862-1.434-10.445-4.096-13.338-2.381-2.56-5.76-3.84-10.010-3.84v0c-8.704 0-19.302 5.402-28.314 14.413l-208.307 208.333-208.307-208.333c-9.958-9.984-20.454-15.693-28.774-15.693v0zM687.462 127.813c6.17-6.144 12.57-9.395 18.509-9.395 9.293 0 15.821 8.013 15.821 19.456v613.99c0 16.947-13.773 30.669-30.694 30.669h-358.144c-16.947 0-30.746-13.747-30.746-30.669v-613.99c0-5.35 1.382-10.010 3.942-13.44 2.893-3.84 7.117-5.99 11.93-5.99 5.888 0 12.288 3.251 18.483 9.395l175.462 175.488 175.437-175.514zM660.25 545.707c-0.102 0-0.154 0.154-0.307 0.205-1.357 0.589-2.842 0.998-4.506 0.998-0.589 0-1.050-0.256-1.613-0.307-38.579 0.947-98.406 2.509-98.406 2.509s-20.352 57.574-33.178 93.85c-0.307 0.947-0.691 1.741-1.203 2.56-0.538 1.050-1.101 1.792-1.638 2.099-1.946 1.792-4.506 2.995-7.347 2.995s-5.453-1.203-7.347-2.995c-0.538-0.307-1.050-1.050-1.613-2.099-0.538-0.794-0.947-1.613-1.254-2.56-12.826-36.275-33.178-93.85-33.178-93.85s-59.878-1.562-98.355-2.509c-0.589 0.051-1.101 0.307-1.69 0.307-1.613 0-3.046-0.41-4.506-0.998-0.102-0.051-0.102-0.205-0.256-0.205-3.533-1.741-6.067-5.376-6.067-9.626 0-2.15 0.794-3.994 1.843-5.709 0 0 0 0 0.051 0 0.896-1.51 2.074-2.611 3.533-3.507 30.592-23.45 78.618-60.262 78.618-60.262s-16.947-57.318-27.955-94.234c-0.896-1.562-1.51-3.251-1.51-5.094 0-6.042 4.89-10.957 10.854-10.957 3.251 0 6.093 1.51 8.038 3.738 7.757 5.299 16.486 11.29 25.318 17.408l55.424 38.118 55.475-38.118c8.858-6.093 17.536-12.109 25.267-17.408 1.997-2.253 4.813-3.738 8.013-3.738 5.99 0 10.854 4.89 10.854 10.957 0 1.843-0.589 3.558-1.408 5.094-11.008 36.915-28.058 94.234-28.058 94.234s48.077 36.813 78.669 60.262c1.459 0.896 2.688 1.997 3.533 3.507 1.101 1.69 1.843 3.558 1.843 5.709 0.077 4.224-2.381 7.885-5.939 9.626zM548.557 479.633l19.302-64.845-55.782 38.374-55.834-38.374 19.302 64.845-53.734 41.242 67.686 1.69 22.579 63.923 22.528-63.923 67.763-1.69-53.811-41.242z" />
<glyph unicode="&#xe90d;" glyph-name="brackets" data-tags="brackets" d="M326.861 68.267c-12.595 0-56.141 2.33-87.885 32.461-22.195 21.12-33.485 50.432-33.485 87.066v10.138c0.102 94.131 0.179 175.334-77.261 208.922-7.91 3.482-13.030 11.238-13.030 19.789 0 8.602 5.12 16.358 13.056 19.789 77.414 33.613 77.338 114.816 77.261 208.845v10.24c0 36.685 11.264 65.971 33.485 87.040 31.744 30.182 75.341 32.512 87.936 32.512l66.662-0.051c11.955 0 21.683-9.651 21.683-21.555s-9.728-21.555-21.683-21.555c0 0-65.024 0-65.178 0-8.525 0-39.398-1.254-59.75-20.762-13.184-12.595-19.84-31.309-19.84-55.629v-10.138c0.102-87.168 0.205-177.306-68.762-228.762 68.941-51.456 68.838-141.568 68.762-228.71v-10.138c0-24.397 6.758-43.213 20.070-55.834 20.634-19.61 52.019-20.582 58.112-20.582h66.637c11.955 0 21.683-9.677 21.683-21.581s-9.754-21.504-21.709-21.504h-66.765zM630.374 68.267c-11.955 0-21.658 9.651-21.658 21.555s9.702 21.581 21.658 21.581c0 0 65.050 0 65.178 0 8.576 0 39.45 1.28 59.75 20.736 13.21 12.621 19.891 31.386 19.891 55.68v10.138c-0.102 87.117-0.179 177.254 68.762 228.71-68.915 51.456-68.838 141.568-68.762 228.762v10.086c0 24.371-6.758 43.187-20.070 55.859-20.659 19.61-52.045 20.608-58.138 20.608l-66.611-0.051c-11.955 0-21.658 9.651-21.658 21.555s9.702 21.555 21.658 21.555c0 0 64.614 0 64.717 0 15.104 0 58.342-2.483 89.933-32.461 22.246-21.069 33.51-50.381 33.51-87.040v-10.163c-0.128-94.080-0.256-175.258 77.286-208.896 7.91-3.456 13.005-11.213 13.005-19.789 0-8.55-5.094-16.358-13.005-19.763-77.517-33.613-77.389-114.842-77.286-208.87v-10.189c0-36.659-11.238-65.946-33.51-87.066-31.718-30.208-75.264-32.538-87.885-32.538h-66.765z" />
<glyph unicode="&#xe90e;" glyph-name="browser" data-tags="browser" d="M888.704 750.635h-753.408c-12.493 0-22.656-10.138-22.656-22.63v-602.65c0-12.493 10.163-22.656 22.656-22.656h753.408c12.493 0 22.656 10.138 22.656 22.656v602.65c0 12.493-10.163 22.63-22.656 22.63zM157.926 570.744v134.656h708.122v-134.656h-708.122zM157.926 147.985v377.498h708.122v-377.498h-708.122zM267.059 637.969c0-14.096-11.427-25.523-25.523-25.523s-25.523 11.427-25.523 25.523c0 14.096 11.427 25.523 25.523 25.523s25.523-11.427 25.523-25.523zM356.531 637.969c0-14.096-11.427-25.523-25.523-25.523s-25.523 11.427-25.523 25.523c0 14.096 11.427 25.523 25.523 25.523s25.523-11.427 25.523-25.523zM445.952 637.969c0-14.096-11.427-25.523-25.523-25.523s-25.523 11.427-25.523 25.523c0 14.096 11.427 25.523 25.523 25.523s25.523-11.427 25.523-25.523z" />
<glyph unicode="&#xe90f;" glyph-name="cart" data-tags="cart" d="M352.922 193.374c-26.163 0-47.437 21.222-47.437 47.36l-6.272 37.862-7.347 49.254c-1.331 4.813-1.946 8.909-1.946 12.749l-49.971 349.696-8.653 52.096h-93.645c-12.365 0-22.451 10.061-22.451 22.426 0 12.339 10.086 22.4 22.451 22.4h99.814c1.434 0 2.842-0.358 4.326-0.768l0.64-0.154 1.92-0.179c2.739 0.742 4.173 1.126 5.581 1.126 12.39 0 22.477-10.061 22.477-22.4l4.762-28.723 2.483 0.435c2.534 0.435 5.094 0.845 7.782 0.845h573.978c26.138 0 47.411-21.274 47.411-47.437v-299.494c0-26.138-21.248-47.386-47.411-47.386-2.355-0.026-232.243-1.818-370.483-16.333-66.458-6.989-129.485-25.856-147.2-31.462l-2.022-0.64 8.422-56.397h486.323c12.339 0 22.451-10.086 22.451-22.451s-10.112-22.426-22.451-22.426h-483.533zM318.592 692.446c-15.155 0-27.469-12.288-27.469-27.418l41.626-291.507c-0.026-14.797 12.314-27.11 27.494-27.11 1.382 0.384 41.933 17.459 114.765 26.061 122.803 14.464 359.066 15.488 361.472 15.488 15.104 0 27.443 12.288 27.443 27.469v249.6c0 15.104-12.339 27.418-27.443 27.418h-517.888zM408.269 165.854c-27.546 0-49.869-22.323-49.869-49.894 0-27.546 22.323-49.869 49.869-49.869 27.622 0 49.946 22.323 49.946 49.869 0 27.571-22.323 49.894-49.946 49.894zM807.603 115.985c0-27.556-22.338-49.894-49.894-49.894s-49.894 22.338-49.894 49.894c0 27.556 22.338 49.894 49.894 49.894s49.894-22.338 49.894-49.894z" />
<glyph unicode="&#xe910;" glyph-name="category" data-tags="category" d="M512 386.501c-2.432 0-4.838 0.538-7.219 1.587l-365.67 163.635c-6.886 3.072-11.264 10.112-11.11 17.971 0.154 7.757 4.89 14.797 11.776 17.485l365.722 145.434c2.099 0.819 4.275 1.254 6.502 1.254 2.202 0 4.403-0.435 6.502-1.254l365.696-145.382c7.040-2.816 11.648-9.677 11.802-17.485 0.205-7.885-4.173-14.95-11.11-18.022l-365.696-163.712c-2.278-0.998-4.736-1.51-7.194-1.51v0zM195.226 568.286l315.878-141.363 317.67 141.363-316.774 125.926-316.774-125.926zM139.11 414.123c-9.242 4.173-13.568 15.462-9.626 25.165 2.893 7.040 9.523 11.622 16.87 11.622 2.483 0 4.89-0.538 7.219-1.587l357.555-159.974 359.347 159.974c2.355 1.075 4.762 1.587 7.245 1.587 7.322 0 13.926-4.531 16.794-11.622 3.968-9.702-0.358-20.992-9.626-25.165l-372.89-166.861-372.89 166.861zM139.11 286.379c-9.267 4.198-13.594 15.462-9.626 25.114 2.893 7.040 9.523 11.622 16.87 11.622 2.483 0 4.89-0.538 7.219-1.562l357.555-160 359.347 160c2.304 0.998 4.762 1.562 7.245 1.562 7.322 0 13.926-4.582 16.794-11.622 3.968-9.677-0.358-20.966-9.6-25.114l-372.915-166.912-372.89 166.912z" />
<glyph unicode="&#xe911;" glyph-name="chat" data-tags="chat" d="M863.539 668.433h-226.406c-1.101 38.093-32.256 68.762-70.605 68.762h-406.093c-39.066 0-70.835-31.744-70.835-70.835v-266.368c0-39.091 31.77-70.861 70.835-70.861h33.075l118.707-137.037c3.994-4.634 9.779-7.219 15.846-7.219 2.406 0 4.864 0.41 7.347 1.306 8.141 3.046 13.619 10.957 13.619 19.661v123.29h37.837c1.101-38.067 32.256-68.787 70.605-68.787h217.549v-123.264c0-8.704 5.478-16.589 13.67-19.686 2.432-0.87 4.864-1.28 7.27-1.28 6.042 0 11.853 2.611 15.846 7.194l118.707 137.037h33.050c39.066 0 70.861 31.77 70.861 70.861v266.394c-0.026 39.091-31.795 70.835-70.886 70.835zM386.611 597.598v-226.509h-58.573c-11.571 0-20.966-9.421-20.966-20.966v-88.064l-88.141 101.837c-4.019 4.557-9.779 7.219-16.538 7.219 0 0-41.933 0-41.933 0-15.949 0-28.902 12.928-28.902 28.902v266.342c0 15.923 12.979 28.928 28.902 28.928h406.118c15.206 0 27.341-11.93 28.442-26.854h-137.574c-39.066 0-70.835-31.744-70.835-70.835zM892.467 331.205c0-15.949-12.979-28.902-28.928-28.902h-42.598c-6.042 0-11.853-2.611-15.898-7.219l-88.115-101.811v88.064c0 11.546-9.421 20.941-20.966 20.941h-238.515c-15.923 0-28.877 12.954-28.877 28.902v266.419c0 15.949 12.954 28.928 28.877 28.928h406.118c15.949 0 28.928-12.979 28.928-28.928v-266.394zM840.73 562.27h-360.448c-11.571 0-20.966-9.395-20.966-20.941s9.395-20.966 20.966-20.966h360.448c11.571 0 20.992 9.421 20.992 20.966s-9.421 20.941-20.992 20.941zM840.73 485.393h-360.448c-11.571 0-20.966-9.395-20.966-20.966 0-11.546 9.395-20.966 20.966-20.966h360.448c11.571 0 20.992 9.421 20.992 20.966 0 11.571-9.421 20.966-20.992 20.966zM650.906 408.491h-170.624c-11.571 0-20.966-9.395-20.966-20.941s9.395-20.966 20.966-20.966h170.624c11.546 0 20.941 9.421 20.941 20.966s-9.395 20.941-20.941 20.941z" />
<glyph unicode="&#xe912;" glyph-name="check" data-tags="check" d="M409.6 145.067c-6.554 0-13.133 2.509-18.099 7.501l-256 256c-10.010 10.010-10.010 26.189 0 36.198s26.189 10.010 36.198 0l237.901-237.901 493.901 493.901c10.010 10.010 26.163 10.010 36.198 0 10.010-10.010 10.010-26.189 0-36.198l-512-512c-4.992-4.992-11.546-7.501-18.099-7.501z" />
<glyph unicode="&#xe913;" glyph-name="close" data-tags="close" d="M548.198 426.667l301.901 301.901c10.010 9.984 10.010 26.189 0 36.198s-26.189 10.010-36.198 0l-301.901-301.901-301.901 301.901c-9.984 10.010-26.189 10.010-36.198 0s-10.010-26.189 0-36.198l301.901-301.901-301.901-301.901c-10.010-10.010-10.010-26.189 0-36.198 4.992-4.992 11.571-7.501 18.099-7.501 6.554 0 13.082 2.509 18.099 7.501l301.901 301.901 301.901-301.901c4.992-4.992 11.546-7.501 18.099-7.501s13.107 2.509 18.099 7.501c10.010 10.010 10.010 26.189 0 36.198l-301.901 301.901z" />
<glyph unicode="&#xe914;" glyph-name="cloud" data-tags="cloud" d="M745.267 146.936h-492.442c-97.050 0-176.026 78.976-176.026 176.026 0 92.595 71.834 168.73 162.714 175.565 19.712 61.235 77.338 104.090 142.925 104.090 9.446 0 19.046-1.050 29.005-3.2 34.867 65.51 102.989 106.931 178.253 106.931 95.462 0 177.51-68.070 196.813-160.666 92.646-19.302 160.691-101.376 160.691-196.813 0-111.36-90.573-201.933-201.933-201.933zM251.725 457.617c-73.702-0.614-133.504-60.8-133.504-134.656 0-74.189 60.39-134.605 134.605-134.605h492.442c88.499 0 160.538 72.013 160.538 160.512 0 79.923-60.16 147.968-139.93 158.336-9.318 1.229-16.666 8.55-17.869 17.894-10.342 79.744-78.413 139.853-158.31 139.853-64.691 0-122.726-38.502-147.942-98.074-4.173-9.907-15.258-14.95-25.498-11.597-12.288 3.994-23.347 5.939-33.792 5.939-51.661 0-96.486-36.71-106.598-87.27-1.946-9.651-10.445-16.64-20.301-16.64-1.587 0-2.918 0.179-3.84 0.307z" />
<glyph unicode="&#xe915;" glyph-name="code" data-tags="code" d="M673.485 193.195c-6.042 0-11.725 2.662-15.616 7.245-7.194 8.602-6.067 21.478 2.534 28.672l234.778 196.864-236.211 198.17c-8.602 7.194-9.728 20.070-2.509 28.672 3.866 4.634 9.574 7.296 15.59 7.296 4.813 0 9.421-1.664 13.107-4.787l254.797-213.811c4.608-3.814 7.245-9.549 7.245-15.514 0-6.067-2.662-11.75-7.296-15.616l-253.338-212.403c-3.661-3.123-8.32-4.787-13.082-4.787v0zM350.541 193.195c-4.813 0-9.446 1.664-13.082 4.787l-253.363 212.454c-4.634 3.814-7.296 9.472-7.296 15.565 0 6.016 2.662 11.699 7.27 15.565l254.797 213.811c3.686 3.098 8.32 4.787 13.082 4.787 6.042 0 11.725-2.662 15.59-7.296 7.219-8.602 6.093-21.478-2.509-28.672l-236.211-198.17 234.778-196.864c8.602-7.194 9.728-20.070 2.534-28.672-3.891-4.634-9.549-7.296-15.59-7.296v0zM458.342 193.195c-1.766 0-3.379 0.179-4.941 0.589-10.88 2.662-17.536 13.747-14.848 24.653l105.933 426.214c2.253 9.114 10.394 15.462 19.738 15.462 1.638 0 3.328-0.23 4.915-0.589 10.906-2.714 17.562-13.798 14.848-24.704l-105.933-426.214c-2.227-9.062-10.342-15.411-19.712-15.411v0z" />
<glyph unicode="&#xe916;" glyph-name="coffee" data-tags="coffee" d="M334.899 55.467l-4.531 3.354c-73.805 53.914-106.957 414.413-106.957 501.222v17.331h508.058v-17.331c0-12.442-0.87-30.157-2.534-51.456 5.376-1.408 10.522-3.277 15.36-5.53 29.901-14.208 49.331-45.158 54.81-87.117 5.248-40.55-3.302-86.912-23.962-130.458-23.552-49.434-61.184-90.086-100.992-109.235-17.741-62.72-37.299-102.246-58.035-117.453l-4.608-3.328h-276.608zM599.475 90.129c50.842 50.867 92.621 340.659 96.973 452.634h-438.016c4.25-114.662 39.219-402.842 88.55-452.634h252.493zM725.862 473.233c-6.733-67.968-20.224-165.658-39.168-248.064 22.451 18.509 42.931 45.286 57.165 75.238 17.382 36.48 25.088 74.778 21.734 107.75-3.149 31.462-16 54.016-36.070 63.59-1.203 0.563-2.406 1.075-3.661 1.485v0zM418.765 648.798l2.944 2.637c16.307 14.285 33.69 35.994 29.312 50.253-1.869 6.118-8.371 10.829-19.968 14.413-22.502 7.014-36.659 18.432-40.909 33.050-5.99 20.762 7.654 46.925 37.555 71.757l3.046 2.56 25.446-18.15-3.098-2.586c-17.28-14.362-32.998-34.637-29.235-47.539 1.741-6.016 8.294-10.675 20.096-14.362 22.246-6.886 36.301-18.33 40.781-33.126 6.426-21.222-7.091-48.179-37.12-73.984l-3.021-2.662-25.83 17.741zM516.48 617.797l2.97 2.662c16.23 14.259 33.638 35.917 29.312 50.227-1.869 6.067-8.448 10.829-20.070 14.413-22.4 6.938-36.557 18.381-40.832 33.075-6.042 20.557 7.629 46.669 37.53 71.706l3.149 2.611 25.344-18.202-3.098-2.534c-17.28-14.413-32.947-34.688-29.21-47.616 2.278-7.757 11.008-11.008 22.093-15.104 14.49-5.402 32.64-12.134 38.835-32.282 7.629-25.139-15.309-55.629-37.248-74.061l-2.995-2.56-25.779 17.664z" />
<glyph unicode="&#xe917;" glyph-name="commit" data-tags="commit" d="M799.437 810.667h-574.874c-51.456 0-93.363-41.907-93.363-93.338v-377.114c0-51.482 41.882-93.338 93.363-93.338h314.829v-181.402c0-9.523 5.888-18.048 14.797-21.325 2.637-0.998 5.299-1.485 7.987-1.485 6.477 0 12.774 2.739 17.229 7.859l170.086 196.326h49.946c51.482 0 93.363 41.882 93.363 93.338v377.139c0 51.43-41.907 93.338-93.363 93.338zM847.258 340.19c0-26.317-21.453-47.795-47.821-47.795 0 0-58.957 0-59.264 0-6.758 0.333-13.542-2.381-18.33-7.834l-136.883-158.029v143.078c0 12.595-10.189 22.784-22.784 22.784h-337.613c-26.342 0-47.77 21.478-47.77 47.795v377.139c0 26.317 21.427 47.744 47.77 47.744h574.848c26.368 0 47.821-21.427 47.821-47.744v-377.139h0.026zM767.104 660.395h-510.208c-12.57 0-22.784-10.214-22.784-22.835 0-12.544 10.189-22.784 22.784-22.784h510.208c12.595 0 22.81 10.214 22.81 22.784-0.026 12.595-10.214 22.835-22.81 22.835zM767.104 551.518h-510.208c-12.57 0-22.784-10.163-22.784-22.784 0-12.518 10.189-22.784 22.784-22.784h510.208c12.595 0 22.81 10.24 22.81 22.784-0.026 12.595-10.214 22.784-22.81 22.784zM498.406 442.718h-241.51c-12.57 0-22.784-10.214-22.784-22.784 0-12.595 10.189-22.835 22.784-22.835h241.51c12.57 0 22.784 10.214 22.784 22.835-0.026 12.57-10.214 22.784-22.784 22.784z" />
<glyph unicode="&#xe918;" glyph-name="database" data-tags="database" d="M819.2 670.763c0 24.269-16.896 58.752-97.485 85.427-56.294 18.637-130.765 28.877-209.715 28.877-78.925 0-153.421-10.24-209.715-28.877-80.563-26.65-97.485-61.158-97.485-85.427 0-0.205 0-0.358 0.026-0.563 0-0.102-0.026-0.205-0.026-0.23v-161.946c0-0.179 0-0.358 0.026-0.589 0-0.077-0.026-0.154-0.026-0.205v-161.92c0-0.205 0-0.41 0.026-0.589 0-0.077-0.026-0.179-0.026-0.256v-161.894c0-24.243 16.922-58.752 97.485-85.427 56.294-18.637 130.79-28.877 209.715-28.877 78.95 0 153.421 10.24 209.715 28.877 80.589 26.675 97.485 61.184 97.485 85.427v161.894c0 0.077 0 0.179 0 0.256 0 0.205 0 0.41 0 0.589v161.92c0 0.051 0 0.128 0 0.205 0 0.23 0 0.41 0 0.589v161.946c0 0.026 0 0.128 0 0.23 0 0.205 0 0.358 0 0.563zM780.8 182.571c0-31.104-104.704-76.211-268.8-76.211s-268.8 45.107-268.8 76.211v103.731c14.259-9.498 33.434-18.739 59.085-27.213 56.294-18.662 130.79-28.902 209.715-28.902 78.95 0 153.421 10.24 209.715 28.902 25.626 8.474 44.826 17.715 59.085 27.213v-103.731zM780.8 345.31c0-31.078-104.704-76.211-268.8-76.211s-268.8 45.133-268.8 76.211v103.731c14.259-9.498 33.434-18.765 59.085-27.264 56.294-18.637 130.79-28.851 209.715-28.851 78.95 0 153.421 10.24 209.715 28.851 25.626 8.499 44.826 17.766 59.085 27.264v-103.731zM780.8 508.024c0-31.053-104.704-76.16-268.8-76.16s-268.8 45.107-268.8 76.16v103.757c14.259-9.498 33.434-18.765 59.085-27.264 56.294-18.637 130.79-28.877 209.715-28.877 78.95 0 153.421 10.24 209.715 28.877 25.626 8.499 44.826 17.766 59.085 27.264v-103.757zM512 594.603c-164.096 0-268.8 45.107-268.8 76.16 0 31.078 104.704 76.186 268.8 76.186s268.8-45.107 268.8-76.186c0-31.053-104.704-76.16-268.8-76.16z" />
<glyph unicode="&#xe919;" glyph-name="date" data-tags="date" d="M148.787 29.867v726.323h161.715v67.277h40.806v-67.277h317.491v67.277h41.062v-67.277h165.325v-726.323h-726.4zM834.15 70.929v493.312h-644.301v-493.286h644.301zM834.15 605.304v109.798h-124.262v-42.88h-41.062v42.88h-317.517v-42.88h-40.806v42.88h-120.653v-109.798h644.301z" />
<glyph unicode="&#xe91a;" glyph-name="document" data-tags="document" d="M378.010 523.256c0-11.52 9.395-20.89 20.915-20.89h321.997c11.494 0 20.915 9.395 20.915 20.89 0 11.546-9.421 20.915-20.915 20.915h-321.997c-11.52 0-20.915-9.37-20.915-20.915zM831.181 676.728l-153.651 153.933c-3.635 3.61-8.243 5.606-12.979 5.606h-350.336c-9.958 0-18.074-8.090-18.074-18.074v-678.81c0-9.651 8.269-17.766 18.074-17.766h377.779v-68.736h-468.582v642.995h70.989v35.84h-89.088c-9.958 0-18.074-8.115-18.074-18.099v-678.784c-0.026-9.651 8.269-17.766 18.074-17.766h504.474c9.805 0 18.074 8.115 18.074 17.766v86.784h90.854c9.805 0 18.074 8.115 18.074 17.766v524.621c0 5.018-2.048 9.6-5.606 12.723zM682.598 775.006l92.928-93.235h-92.928v93.235zM800.922 157.457h-468.608v642.995h314.138v-136.448c0-9.933 8.064-18.048 18.074-18.048h136.371v-488.499zM720.922 451.217h-321.997c-11.52 0-20.915-9.395-20.915-20.915s9.395-20.89 20.915-20.89h321.997c11.494 0 20.915 9.395 20.915 20.89 0.026 11.546-9.421 20.915-20.915 20.915zM720.922 358.264h-321.997c-11.52 0-20.915-9.344-20.915-20.89s9.395-20.89 20.915-20.89h321.997c11.494 0 20.915 9.344 20.915 20.89s-9.421 20.89-20.915 20.89zM294.4 439.595h-4.403c-11.52 0-20.915-9.395-20.915-20.89 0-11.546 9.395-20.941 20.915-20.941h4.403v41.83zM294.4 346.667h-4.403c-11.52 0-20.915-9.395-20.915-20.89 0-11.546 9.395-20.941 20.915-20.941h4.403v41.83zM269.082 232.798c0-11.52 9.395-20.89 20.915-20.89h4.403v41.83h-4.403c-11.52-0.026-20.915-9.421-20.915-20.941z" />
<glyph unicode="&#xe91b;" glyph-name="down" data-tags="down" d="M511.027 218.513c-6.477 0-12.621 2.611-17.152 7.194l-358.963 366.285c-9.318 9.472-9.139 24.653 0.282 33.946 9.523 9.267 24.704 9.114 33.946-0.333l341.862-348.8 343.885 350.822c9.242 9.472 24.422 9.626 33.946 0.384 9.421-9.293 9.6-24.499 0.333-33.971l-360.986-368.333c-4.557-4.582-10.701-7.194-17.152-7.194z" />
<glyph unicode="&#xe91c;" glyph-name="download" data-tags="download" d="M848 42.667h-672c-13.286 0-24.013 10.752-24.013 24.013v147.2c0 13.261 10.726 24.013 24.013 24.013 13.261 0 23.987-10.778 23.987-24.013v-123.213h624v123.213c0 13.261 10.726 24.013 24.013 24.013 13.261 0 24.013-10.778 24.013-24.013v-147.2c0-13.261-10.752-24.013-24.013-24.013zM513.075 189.893c-6.016 0-12.006 2.278-16.666 6.784l-192.896 186.291c-9.549 9.216-9.805 24.422-0.589 33.946 9.165 9.523 24.422 9.83 33.92 0.589l176.23-170.214 176.23 170.214c9.523 9.216 24.781 8.934 33.894-0.589 9.216-9.523 8.986-24.73-0.563-33.946l-192.87-186.291c-4.659-4.506-10.675-6.784-16.691-6.784zM513.075 189.893c-13.261 0-24.013 10.778-24.013 24.038v572.749c0 13.286 10.752 23.987 24.013 23.987 13.286 0 24.013-10.701 24.013-23.987v-572.749c-0.026-13.261-10.726-24.038-24.013-24.038z" />
<glyph unicode="&#xe91d;" glyph-name="dribbble" data-tags="dribbble" d="M512 797.867c-204.672 0-371.2-166.579-371.2-371.251 0-204.646 166.502-371.149 371.2-371.149s371.2 166.502 371.2 371.149c0 204.672-166.528 371.251-371.2 371.251zM512 760.107c81.946 0 157.056-29.722 215.168-78.925-0.435-0.538-0.845-1.152-1.229-1.715-0.384-0.589-35.226-55.603-119.219-107.366-18.304-11.238-39.91-22.886-64.947-33.971-53.069 102.093-111.411 172.058-139.981 203.213 34.509 12.134 71.603 18.765 110.208 18.765zM364.646 725.726c20.403-21.35 84.48-92.672 141.901-201.856-78.694-29.133-185.19-50.56-323.738-43.75 17.485 108.006 86.989 198.707 181.837 245.606zM272.102 195.192c-57.907 60.083-93.594 141.645-93.594 231.424 0 5.35 0.102 10.65 0.384 15.923 18.867-0.998 37.146-1.434 54.912-1.434 121.088 0 216.704 21.299 289.741 48.794 5.76-12.032 11.366-24.499 16.819-37.376 3.968-9.267 7.782-18.611 11.418-27.853-129.459-36.736-225.869-115.405-279.066-227.968-0.205-0.538-0.41-0.973-0.614-1.51zM512 93.176c-81.587 0-156.416 29.466-214.426 78.31 3.942 1.766 7.296 4.89 9.293 9.062 48.819 103.398 138.138 175.462 258.406 208.742 50.662-139.494 67.149-257.126 69.222-272.819-37.939-15.053-79.283-23.296-122.496-23.296zM670.259 133.163c-5.453 36.915-23.45 141.21-67.866 264.474 103.962 18.074 213.376-4.122 240.768-10.368-13.005-109.901-79.642-203.622-172.902-254.106zM588.877 433.553c-4.378 11.213-8.986 22.4-13.773 33.741-5.376 12.723-10.957 25.062-16.589 36.966 27.11 12.083 50.458 24.806 70.195 37.069 77.133 48 115.482 98.099 126.182 113.536 56.115-59.674 90.598-140.006 90.598-228.25 0-0.41-0.026-0.768-0.026-1.178-38.272 8.397-149.274 28.621-256.589 8.115z" />
<glyph unicode="&#xe91e;" glyph-name="email" data-tags="email" d="M877.696 682.667h-731.418c-10.086 0-18.278-8.166-18.278-18.278v-475.418c0-10.112 8.192-18.304 18.278-18.304h731.418c10.138 0 18.304 8.192 18.304 18.304v475.418c0 10.112-8.166 18.278-18.304 18.278zM164.582 624.581l225.741-180.941-225.741-207.974v388.915zM512 392.926l-315.776 253.184h631.578l-315.802-253.184zM419.174 420.497l81.357-65.229c0.026 0 0.077-0.051 0.102-0.051 0.179-0.154 0.384-0.307 0.538-0.435 0.333-0.23 0.64-0.486 0.973-0.666 0.205-0.154 0.41-0.256 0.614-0.384 0.358-0.23 0.742-0.435 1.101-0.614 0.179-0.051 0.333-0.154 0.486-0.256 0.563-0.23 1.152-0.461 1.715-0.64 0.026 0 0.051 0 0.077-0.051 0.538-0.154 1.126-0.358 1.69-0.435 0.154-0.051 0.282-0.102 0.435-0.102 0.486-0.128 0.947-0.179 1.434-0.23 0.128-0.051 0.307-0.051 0.435-0.051 0.614-0.102 1.203-0.154 1.818-0.154v0 0c0.614 0 1.229 0.051 1.843 0.154 0.128 0 0.282 0 0.41 0.051 0.512 0.051 0.998 0.102 1.459 0.23 0.154 0 0.307 0.051 0.435 0.102 0.563 0.077 1.126 0.282 1.69 0.435 0.026 0.051 0.051 0.051 0.077 0.051 0.589 0.205 1.152 0.435 1.715 0.64 0.179 0.102 0.333 0.205 0.486 0.256 0.384 0.205 0.742 0.41 1.152 0.614 0.205 0.128 0.41 0.23 0.589 0.384 0.307 0.205 0.64 0.461 0.947 0.666 0.205 0.128 0.41 0.282 0.563 0.435 0.026 0 0.077 0.051 0.102 0.051l81.357 65.229 231.501-213.248h-648.576l231.475 213.248zM633.702 443.64l225.715 180.941v-388.48l-225.715 207.539z" />
<glyph unicode="&#xe91f;" glyph-name="eye" data-tags="eye" d="M512 180.497c-176.922 0-343.347 94.234-435.2 246.144 91.853 151.936 258.278 246.195 435.2 246.195 176.896 0 343.347-94.259 435.2-246.195-91.853-151.936-258.304-246.144-435.2-246.144v0zM511.949 624.965c-148.915 0-289.51-72.909-375.987-195.021l-2.253-3.2 2.253-3.174c86.477-122.112 227.072-195.021 375.987-195.021 148.992 0 289.562 72.934 375.987 195.021l2.278 3.174-2.278 3.2c-86.426 122.086-226.995 195.021-375.987 195.021v0zM511.667 592.529c-91.494 0-165.837-74.24-165.837-165.862s74.342-165.837 165.837-165.837c91.674 0 165.837 74.189 165.837 165.837s-74.163 165.862-165.837 165.862zM511.667 302.328c-68.608 0-124.365 55.68-124.365 124.365s55.757 124.39 124.365 124.39c68.762 0 124.365-55.68 124.365-124.39s-55.603-124.365-124.365-124.365z" />
<glyph unicode="&#xe920;" glyph-name="facebook" data-tags="facebook" d="M561.408 42.667h-138.368c-10.47 0-18.893 8.422-18.893 18.893v315.802h-89.856c-10.419 0-18.893 8.499-18.893 18.867v148.378c0 10.394 8.474 18.893 18.893 18.893h89.856v38.886c0 112.896 85.043 208.282 185.728 208.282h119.91c10.394 0 18.867-8.474 18.867-18.893v-148.326c0-10.368-8.474-18.893-18.867-18.893h-119.706c-2.202-0.538-9.754-6.886-9.754-20.838v-40.166h129.459c10.394 0 18.867-8.499 18.867-18.893v-148.378c0-10.368-8.474-18.867-18.867-18.867h-129.459v-315.802c-0.026-10.522-8.474-18.944-18.918-18.944zM441.933 80.478h100.582v315.776c0 10.496 8.448 18.893 18.893 18.893h129.459v110.592h-129.459c-10.445 0-18.893 8.397-18.893 18.867v59.085c0 35.072 24.474 58.65 47.36 58.65h100.992v110.515h-100.992c-78.822 0-147.917-79.667-147.917-170.47v-57.779c0-10.47-8.474-18.867-18.893-18.867h-89.856v-110.592h89.856c10.445 0 18.893-8.397 18.893-18.893v-315.776z" />
<glyph unicode="&#xe921;" glyph-name="file" data-tags="file" d="M917.069 565.368c-3.712 4.454-9.19 7.014-14.976 7.014h-58.522v151.731c0 10.752-8.73 19.507-19.507 19.507h-624.128c-10.778 0-19.507-8.73-19.507-19.507v-83.942h-58.522c-5.683 0-11.136-2.483-14.822-6.835-3.712-4.326-5.325-10.086-4.429-15.718l78.029-491.443c1.536-9.446 9.651-16.461 19.251-16.461h624.128c9.395 0 17.485 6.758 19.2 16l78.029 423.654c1.024 5.683-0.486 11.571-4.224 16zM219.418 704.581h585.139v-132.224h-383.77l-92.698 64.307c-3.251 2.278-7.091 3.482-11.136 3.482h-97.536v64.435zM807.885 148.753h-591.309l-71.808 452.403h166.067l92.698-64.282c3.251-2.278 7.168-3.507 11.136-3.507h464l-70.784-384.614z" />
<glyph unicode="&#xe922;" glyph-name="flickr" data-tags="flickr" d="M720.41 225.425c-111.002 0-201.242 90.214-201.242 201.216 0 110.976 90.24 201.267 201.242 201.267 110.95 0 201.19-90.291 201.19-201.267 0-111.002-90.24-201.216-201.19-201.216zM720.41 586.232c-88.013 0-159.539-71.629-159.539-159.59s71.552-159.539 159.539-159.539c87.962 0 159.514 71.578 159.514 159.539s-71.578 159.59-159.514 159.59zM303.59 225.425c-110.95 0-201.19 90.214-201.19 201.216 0 110.976 90.24 201.267 201.19 201.267 110.976 0 201.242-90.291 201.242-201.267 0-111.002-90.266-201.216-201.242-201.216zM303.59 586.232c-87.962 0-159.514-71.629-159.514-159.59s71.552-159.539 159.514-159.539c88.013 0 159.565 71.578 159.565 159.539s-71.578 159.59-159.565 159.59z" />
<glyph unicode="&#xe923;" glyph-name="forbidden" data-tags="forbidden" d="M512 797.867c-204.672 0-371.2-166.579-371.2-371.226 0.051-204.672 166.528-371.174 371.2-371.174s371.251 166.502 371.251 371.174c0 204.646-166.579 371.226-371.251 371.226zM192.538 426.641c0 176.179 143.309 319.514 319.462 319.514 75.904 0 145.638-26.598 200.525-70.938l-449.101-449.101c-44.339 54.886-70.886 124.621-70.886 200.525zM512 107.128c-81.715 0-156.365 30.874-212.915 81.536l450.944 450.944c50.662-56.55 81.51-131.226 81.51-212.941-0.026-176.205-143.334-319.539-319.539-319.539z" />
<glyph unicode="&#xe924;" glyph-name="garbage" data-tags="garbage" d="M282.061 42.411c-10.291 0-18.842 8.038-19.43 18.355l-35.328 623.283h-80.102c-10.726 0-19.456 8.755-19.456 19.456 0 10.726 8.73 19.482 19.456 19.482h91.904l3.968-0.64 2.688 0.614h132.378v68.506c0 10.726 8.704 19.456 19.456 19.456h228.838c10.726 0 19.456-8.73 19.456-19.456v-68.506h132.454l4.48-0.717 3.021 0.717h90.982c10.726 0 19.456-8.755 19.456-19.482 0-10.701-8.73-19.456-19.456-19.456h-80.077l-34.816-623.258c-0.589-10.291-9.114-18.381-19.43-18.381h-460.442zM300.416 81.323h423.654l33.69 602.726h-491.52l34.176-602.726zM417.024 722.961h189.952v49.050h-189.952v-49.050zM366.131 626.321c-6.374-0.307-11.136-2.611-14.592-6.451-3.456-3.891-5.197-8.909-4.915-14.106l25.549-450.765c0.614-10.266 9.139-18.33 19.43-18.33v-4.864l1.152 4.864c10.675 0.614 18.867 9.856 18.304 20.582l-25.574 450.714c-0.614 10.291-9.114 18.355-19.354 18.355v0zM658.15 626.296c-11.392 0-19.866-8.038-20.48-18.33l-25.6-450.714c-0.563-10.726 7.629-19.942 18.355-20.582l1.126-4.864v4.864c10.291 0 18.816 8.038 19.379 18.33l25.626 450.765c0.282 5.197-1.485 10.189-4.915 14.106-3.482 3.84-8.218 6.144-13.389 6.426-0.051 0-0.077 0-0.102 0v0zM512 626.321c-10.726 0-19.456-8.73-19.456-19.456v-450.739c0-10.726 8.73-19.456 19.456-19.456s19.456 8.73 19.456 19.456v450.739c0 10.726-8.73 19.456-19.456 19.456v0z" />
<glyph unicode="&#xe925;" glyph-name="gear" data-tags="gear" d="M512 335.454c-51.123 0-92.698 41.421-92.698 92.416 0 50.944 41.574 92.416 92.698 92.416s92.698-41.472 92.698-92.416c-0.026-50.995-41.6-92.416-92.698-92.416v0zM512 481.297c-29.594 0-53.683-23.962-53.683-53.427s24.064-53.427 53.683-53.427c29.619 0 53.683 23.962 53.683 53.427s-24.090 53.427-53.683 53.427v0zM883.61 338.808l-81.843 47.283c1.843 13.414 2.79 27.008 2.79 40.576s-0.947 27.213-2.79 40.627l81.843 47.232c8.73 5.043 11.725 16.256 6.682 25.011l-91.418 158.362c-2.458 4.224-6.451 7.27-11.136 8.525-4.685 1.28-9.677 0.538-13.85-1.818l-81.869-47.283c-21.504 16.845-45.056 30.464-70.298 40.653v94.413c-0.026 10.138-8.166 18.278-18.33 18.278h-182.835c-10.112 0-18.278-8.141-18.278-18.278v-94.438c-25.242-10.163-48.819-23.808-70.298-40.653l-81.843 47.232c-8.73 5.094-19.917 2.099-24.986-6.656l-91.418-158.362c-2.432-4.224-3.072-9.165-1.843-13.901 1.254-4.685 4.326-8.678 8.525-11.11l81.843-47.232c-1.894-13.414-2.842-27.034-2.842-40.602s0.973-27.162 2.842-40.576l-81.843-47.232c-8.73-5.043-11.725-16.256-6.682-25.011l91.418-158.362c2.432-4.224 6.426-7.27 11.136-8.576 4.659-1.229 9.651-0.538 13.85 1.869l81.869 47.232c21.478-16.794 45.056-30.413 70.298-40.653v-94.438c0-10.086 8.192-18.278 18.278-18.278h182.835c10.138 0 18.304 8.192 18.304 18.278v94.438c25.242 10.214 48.794 23.859 70.349 40.653l81.818-47.232c4.173-2.432 9.165-3.098 13.85-1.869 4.685 1.306 8.678 4.352 11.136 8.576l91.418 158.362c5.043 8.781 2.022 19.968-6.682 24.96zM776.32 189.611l-76.954 44.416c-6.733 3.891-15.155 3.098-21.043-1.946-24.013-20.582-51.277-36.326-80.998-46.848-7.27-2.586-12.211-9.421-12.211-17.254v-88.755h-146.278v88.755c0 7.834-4.864 14.669-12.211 17.254-29.696 10.522-56.96 26.266-80.998 46.848-5.888 5.043-14.336 5.862-21.043 1.946l-76.877-44.416-73.139 126.72 76.877 44.365c6.707 3.84 10.266 11.52 8.832 19.149-2.842 15.386-4.275 31.155-4.275 46.822 0 15.718 1.459 31.437 4.275 46.848 1.434 7.578-2.125 15.309-8.832 19.149l-76.877 44.365 73.139 126.72 76.902-44.416c6.707-3.891 15.13-3.098 21.043 1.894 24.038 20.582 51.277 36.326 80.998 46.848 7.347 2.586 12.211 9.472 12.211 17.254v88.755h146.278v-88.755c0-7.782 4.915-14.669 12.211-17.254 29.722-10.522 56.986-26.266 80.998-46.848 5.888-4.992 14.336-5.811 21.043-1.894l76.928 44.416 73.139-126.72-76.902-44.365c-6.707-3.84-10.24-11.571-8.832-19.149 2.816-15.411 4.275-31.13 4.275-46.848 0-15.667-1.459-31.437-4.275-46.797-1.434-7.629 2.125-15.309 8.832-19.149l76.902-44.365-73.139-126.746z" />
<glyph unicode="&#xe926;" glyph-name="github" data-tags="github" d="M656 261.086c-25.062 0-45.44 31.155-45.44 69.427 0 38.298 20.403 69.478 45.44 69.478s45.44-31.181 45.44-69.478c0-38.272-20.378-69.427-45.44-69.427v0zM368 261.086c-25.062 0-45.44 31.155-45.44 69.427 0 38.298 20.403 69.478 45.44 69.478s45.44-31.181 45.44-69.478c0-38.272-20.378-69.427-45.44-69.427v0zM511.078 117.086c-33.382 0-64.128 1.28-91.418 3.738-27.418 2.483-54.81 6.886-81.357 13.107-26.317 6.17-50.099 14.336-70.63 24.192-20.454 9.882-39.706 22.758-57.242 38.298-17.485 15.488-32.102 33.715-43.392 54.17-11.341 20.403-20.352 44.877-26.752 72.73-6.451 27.75-9.728 59.315-9.728 93.926 0 61.158 20.762 114.739 61.619 159.386l1.075 1.152-0.563 1.459c-2.227 5.914-4.25 12.646-6.118 20.224-1.818 7.552-3.558 18.432-5.146 32.358-1.613 13.798-0.998 30.054 1.818 48.282 2.867 18.227 8.192 37.146 15.821 56.166-0.077-0.486 0.333-0.64 1.024-0.64 0.768 0 1.894 0.205 3.174 0.41 0.691 0 1.382 0.026 2.048 0.026 5.043 0 9.907-0.384 16.282-1.024 9.754-0.947 20.48-3.123 31.846-6.451 11.29-3.328 26.342-9.651 46.003-19.379 19.482-9.728 39.91-21.862 60.646-36.045 38.246 9.523 88.576 14.541 151.706 14.541 63.411 0 113.843-5.018 149.914-14.899 23.117 14.669 43.443 26.803 62.464 36.429 19.328 9.677 34.534 16.026 46.49 19.328 11.93 3.328 22.528 5.581 31.514 6.682 5.402 0.666 9.882 0.998 13.414 0.998 2.202 0 4.045-0.128 5.504-0.41l5.658-1.101c5.786-17.485 11.11-36.378 13.952-54.63 2.79-18.048 3.43-34.304 1.818-48.282-1.613-14.054-3.354-24.934-5.197-32.358-1.818-7.578-3.84-14.31-6.118-20.198l-0.538-1.51 1.075-1.152c40.934-44.595 61.67-98.227 61.67-159.386 0-34.381-3.277-65.971-9.728-93.901-6.374-27.75-15.462-52.224-26.931-72.73-11.469-20.48-26.189-38.707-43.802-54.17-17.69-15.565-37.094-28.442-57.6-38.298-20.685-9.882-44.57-18.022-71.014-24.192-26.675-6.221-54.093-10.624-81.536-13.107-27.29-2.458-58.163-3.738-91.725-3.738v0zM369.869 453.445c-6.63 0-13.338-0.154-20.224-0.41-16.538-0.614-31.642-3.328-44.902-8.013-13.286-4.762-25.062-11.827-34.995-21.018-33.229-30.413-50.048-64.435-50.048-101.043 0-21.734 2.739-41.242 8.166-58.061 5.453-16.768 12.518-31.104 21.018-42.598 8.576-11.494 20.634-21.427 35.814-29.466 14.874-7.885 29.67-14.080 44.006-18.432 14.182-4.25 32.64-7.629 54.938-10.061 22.349-2.381 42.368-3.814 59.52-4.301 17.459-0.512 39.552-0.717 66.381-0.717 26.803 0 48.947 0.23 66.355 0.717 17.178 0.486 37.222 1.92 59.571 4.301 22.272 2.432 40.755 5.811 54.912 10.061 14.336 4.352 29.133 10.547 44.032 18.406 15.155 8.038 27.213 17.971 35.763 29.491 8.525 11.443 15.616 25.805 21.018 42.598 5.478 16.717 8.218 36.275 8.218 58.061 0 37.171-16.819 71.194-50.074 101.069-9.933 9.165-21.709 16.23-35.021 20.966-13.235 4.736-28.314 7.424-44.851 8.038-6.886 0.256-13.594 0.41-20.224 0.41-9.293 0-18.381-0.282-27.213-0.794-14.976-0.87-33.562-2.048-55.578-3.558-21.504-1.485-40.653-2.253-56.934-2.253-16.256 0-35.405 0.768-56.909 2.253-22.016 1.51-40.602 2.662-55.654 3.558-8.755 0.512-17.766 0.794-27.085 0.794v0zM649.19 487.288c7.014 0 14.336-0.128 21.555-0.384 19.968-0.768 38.451-4.147 54.938-10.010 17.562-6.246 33.203-15.616 46.49-27.853 40.55-36.582 61.107-79.002 61.107-126.131 0-13.286-0.922-25.984-2.714-37.734l4.864-1.434c6.093 13.901 11.238 29.773 15.309 47.181 5.837 25.293 8.781 54.323 8.781 86.272 0 53.197-17.229 97.843-52.736 136.448l-15.13 16.538 7.91 20.915c1.715 4.634 3.379 10.138 4.89 16.384 1.050 4.147 2.662 12.39 4.48 28.134 1.229 10.752 0.64 23.962-1.715 39.27-1.178 7.782-2.918 15.693-5.197 23.757l-0.64 2.227-2.278-0.41c-5.734-1.050-12.211-2.586-19.328-4.634-6.528-1.741-18.867-6.144-40.346-16.973-17.434-8.73-36.454-20.070-56.499-33.715l-14.899-10.163-15.258 5.094c-33.254 9.114-80.666 13.747-140.979 13.747-60.032 0-107.315-4.634-140.621-13.747l-17.382-4.762-12.774 9.83c-19.661 13.363-38.733 24.73-56.704 33.715-21.709 10.752-33.946 15.258-40.397 17.126-6.758 2.048-13.158 3.507-19.072 4.454l-2.253 0.358-0.589-2.176c-2.304-8.013-4.045-15.923-5.248-23.706-2.355-15.36-2.918-28.57-1.69-39.27 1.818-15.718 3.456-23.987 4.48-28.16 1.536-6.195 3.174-11.725 4.89-16.358l7.859-20.915-15.104-16.538c-35.507-38.656-52.762-83.277-52.762-136.448 0-31.744 2.97-60.8 8.832-86.272 2.432-10.394 5.171-20.198 8.32-29.389l4.966 0.998c-0.486 6.656-0.768 13.389-0.768 20.378 0 46.541 20.531 88.934 61.005 125.952 13.363 12.365 29.082 21.811 46.618 28.006 16.461 5.888 34.944 9.242 54.963 10.035 7.219 0.256 14.464 0.384 21.53 0.384 9.882 0 19.686-0.282 29.107-0.819 15.053-0.87 33.894-2.099 55.936-3.558 20.89-1.485 39.27-2.202 54.63-2.202s33.715 0.717 54.63 2.202c22.093 1.459 40.909 2.662 55.962 3.558 9.395 0.512 19.149 0.794 29.030 0.794v0z" />
<glyph unicode="&#xe927;" glyph-name="googleplus" data-tags="googleplus" d="M882.355 676.677h-44.134v44.109c0 12.186-9.856 22.067-22.042 22.067-12.16 0-22.016-9.907-22.016-22.067v-44.083h-44.134c-12.186 0-22.042-9.907-22.042-22.042 0-12.186 9.907-22.067 22.042-22.067h44.134v-44.134c0-12.186 9.882-22.067 22.016-22.067 12.237 0 22.042 9.907 22.042 22.067v44.134h44.134c12.211 0 22.042 9.856 22.042 22.067 0 12.16-9.882 22.016-22.042 22.016zM464.973 355.141h202.47l-1.331-3.482c-31.334-81.766-108.16-134.605-195.763-134.605-115.584 0-209.613 94.003-209.613 209.613 0 115.584 94.029 209.587 209.613 209.587 46.643 0 90.829-14.976 127.693-43.341l4.224-3.277 87.245 113.306-4.224 3.251c-62.106 47.821-136.422 73.088-214.938 73.088-194.432 0-352.589-158.157-352.589-352.589s158.157-352.614 352.563-352.614 352.64 158.157 352.64 352.589v71.475h-357.99v-143.002zM497.254 465.937h293.453v-39.245c0-176.666-143.718-320.384-320.358-320.384s-320.333 143.77-320.333 320.384c0 176.64 143.693 320.333 320.333 320.333 60.774 0 119.91-17.050 170.931-49.306l2.432-1.51-48.154-62.49-1.946 1.152c-37.018 22.016-79.616 33.664-123.213 33.664-133.35 0-241.843-108.493-241.843-241.843s108.493-241.818 241.843-241.818c105.242 0 197.734 67.251 230.118 167.347l11.418 35.226h-214.682v78.49z" />
<glyph unicode="&#xe928;" glyph-name="graph" data-tags="graph" d="M144.538 196.267c-37.35 0-67.738 32.435-67.738 72.218s30.387 72.166 67.738 72.166c12.646 0 25.114-3.942 36.096-11.341l1.459-0.973 169.933 141.978-0.179 1.51c-0.717 4.838-1.126 7.757-1.126 10.675 0 39.834 30.362 72.192 67.712 72.192 37.325 0 67.738-32.384 67.738-72.192 0-11.008-2.56-21.99-7.578-32.512l-0.717-1.562 68.378-91.827 1.613 0.589c6.758 2.227 13.568 3.379 20.352 3.379 13.338 0 26.291-4.173 37.453-12.16l1.613-1.075 210.33 208.512-0.64 1.69c-3.405 8.832-5.12 17.997-5.12 27.341 0 39.782 30.387 72.141 67.738 72.141s67.61-32.333 67.61-72.090c0-39.808-30.387-72.192-67.738-72.192-10.419 0-20.762 2.765-30.669 8.243l-1.51 0.794-214.554-212.762 0.41-1.536c1.843-7.142 2.714-13.184 2.714-19.046 0-39.757-30.387-72.218-67.738-72.218s-67.738 32.486-67.738 72.218c0 13.158 3.533 25.882 10.522 37.837l0.896 1.562-65.971 88.602-1.69-0.666c-8.141-3.61-16.794-5.402-25.702-5.402-15.437 0-30.49 5.658-42.47 15.949l-1.51 1.331-2.688-0.051-163.277-136.371 0.486-1.741c2.227-7.731 3.277-14.413 3.277-20.941 0-39.834-30.387-72.269-67.712-72.269v0zM144.538 294.033c-13.235 0-24.013-11.469-24.013-25.549 0-14.157 10.778-25.6 24.013-25.6s24.013 11.443 24.013 25.6c-0.026 14.080-10.778 25.549-24.013 25.549v0zM568.141 314.001c-5.427 0-10.445-1.792-14.592-5.248-5.99-4.864-9.421-12.262-9.421-20.301 0-14.106 10.778-25.574 24.013-25.574s24.013 11.469 24.013 25.574-10.778 25.549-24.013 25.549v0zM418.406 508.075c-13.235 0-24.013-11.469-24.013-25.574 0-7.731 3.277-15.002 8.986-19.917 3.43-2.918 9.472-4.813 15.437-4.813 4.71 0 11.392 1.152 16.538 6.656 4.531 4.813 7.040 11.238 7.040 18.074 0 14.080-10.778 25.574-23.987 25.574v0zM879.462 610.449c-13.235 0-24.013-11.392-24.013-25.523 0-14.106 10.778-25.574 24.013-25.574s24.013 11.469 24.013 25.574c0.026 14.106-10.778 25.523-24.013 25.523v0z" />
<glyph unicode="&#xe929;" glyph-name="grid" data-tags="grid" d="M172.032 68.267c-10.163 0-18.432 8.243-18.432 18.406v148.762c0 10.138 8.269 18.458 18.432 18.458h148.736c10.163 0 18.432-8.294 18.432-18.458v-148.762c0-10.138-8.269-18.406-18.432-18.406h-148.736zM190.438 105.105h111.898v111.898h-111.898v-111.898zM437.632 68.267c-10.138 0-18.432 8.243-18.432 18.406v148.762c0 10.138 8.269 18.458 18.432 18.458h148.762c10.138 0 18.432-8.294 18.432-18.458v-148.762c0-10.138-8.269-18.406-18.432-18.406h-148.762zM456.064 105.105h111.898v111.898h-111.898v-111.898zM703.258 68.267c-10.163 0-18.458 8.243-18.458 18.406v148.762c0 10.138 8.269 18.458 18.458 18.458h148.736c10.138 0 18.432-8.294 18.432-18.458v-148.762c-0.026-10.163-8.294-18.406-18.458-18.406h-148.71zM721.638 105.105h111.898v111.898h-111.898v-111.898zM172.032 333.867c-10.138 0-18.432 8.243-18.432 18.406v148.762c0 10.163 8.269 18.432 18.432 18.432h148.736c10.163 0 18.432-8.269 18.432-18.432v-148.762c0-10.138-8.269-18.406-18.432-18.406h-148.736zM190.438 370.705h111.898v111.898h-111.898v-111.898zM437.632 333.867c-10.138 0-18.432 8.243-18.432 18.406v148.762c0 10.163 8.269 18.432 18.432 18.432h148.762c10.138 0 18.432-8.269 18.432-18.432v-148.762c0-10.138-8.269-18.406-18.432-18.406h-148.762zM456.064 370.705h111.898v111.898h-111.898v-111.898zM703.258 333.867c-10.163 0-18.458 8.243-18.458 18.406v148.762c0 10.163 8.269 18.432 18.458 18.432h148.736c10.138 0 18.432-8.269 18.432-18.432v-148.762c0-10.138-8.269-18.406-18.432-18.406h-148.736zM721.638 370.705h111.898v111.898h-111.898v-111.898zM172.032 599.467c-10.163 0-18.432 8.269-18.432 18.406v148.736c0 10.163 8.269 18.458 18.432 18.458h148.736c10.163 0 18.432-8.269 18.432-18.432v-148.736c0-10.138-8.269-18.406-18.432-18.406h-148.736zM190.438 636.305h111.898v111.923h-111.898v-111.923zM437.632 599.467c-10.138 0-18.432 8.243-18.432 18.406v148.736c0 10.163 8.269 18.432 18.432 18.432h148.762c10.138 0 18.432-8.269 18.432-18.432v-148.736c0-10.138-8.269-18.406-18.432-18.406h-148.762zM456.064 636.305h111.898v111.923h-111.898v-111.923zM703.258 599.467c-10.163 0-18.458 8.243-18.458 18.406v148.736c0 10.163 8.269 18.432 18.458 18.432h148.736c10.138 0.026 18.406-8.269 18.406-18.432v-148.736c0-10.138-8.269-18.406-18.432-18.406h-148.71zM721.638 636.305h111.898v111.923h-111.898v-111.923z" />
<glyph unicode="&#xe92a;" glyph-name="hamburger" data-tags="hamburger" d="M872.013 666.667h-720c-13.286 0-24.013 10.778-24.013 23.987 0 13.261 10.726 24.013 24.013 24.013h720c13.235 0 23.987-10.752 23.987-24.013 0-13.21-10.752-23.987-23.987-23.987zM872.013 138.667h-720c-13.286 0-24.013 10.778-24.013 23.987 0 13.261 10.726 24.013 24.013 24.013h720c13.261 0 24.013-10.752 24.013-24.013-0.026-13.21-10.778-23.987-24.013-23.987zM872.013 402.654h-720c-13.286 0-24.013 10.778-24.013 24.013 0 13.261 10.726 24.013 24.013 24.013h720c13.235-0.026 23.987-10.752 23.987-24.013 0-13.235-10.752-24.013-23.987-24.013z" />
<glyph unicode="&#xe92b;" glyph-name="heart" data-tags="heart" d="M512.358 54.981c-5.76 0-11.187 2.458-14.976 6.707-112.896 126.080-327.27 365.542-330.752 369.638-33.152 40.499-51.43 90.906-51.43 141.952 0 124.16 103.066 225.075 229.734 225.075 62.182 0 120.243-23.731 163.507-66.944l3.558-3.533 3.558 3.533c43.264 43.213 101.325 66.944 163.533 66.944 126.669 0 229.734-100.915 229.734-225.075 0-51.712-17.51-100.429-50.56-140.774l-330.982-370.816c-3.814-4.25-9.242-6.707-14.925-6.707v0zM344.934 758.187c-104.525 0-189.568-82.944-189.568-184.934 0-42.394 14.362-82.33 41.472-115.379 6.272-7.27 206.080-230.554 311.68-348.467l3.763-4.198 315.418 353.357c26.803 32.717 40.909 72.346 40.909 114.688 0 101.965-85.018 184.934-189.542 184.934-59.878 0-114.97-26.752-151.219-73.446-3.84-4.89-9.6-7.757-15.846-7.757s-12.058 2.842-15.898 7.757c-36.198 46.694-91.29 73.446-151.168 73.446v0z" />
<glyph unicode="&#xe92c;" glyph-name="home" data-tags="home" d="M913.075 471.697l-388.89 282.829c-3.533 2.611-7.757 3.968-12.186 3.968s-8.627-1.382-12.211-3.968l-171.904-125.030v47.36c0 13.568-9.498 24.602-21.197 24.602h-93.338c-11.699 0-21.197-11.059-21.197-24.602v-146.074l-81.229-59.085c-9.242-6.733-11.29-19.738-4.557-28.979 3.866-5.325 10.163-8.499 16.768-8.499 4.403 0 8.602 1.357 12.211 3.942l59.418 43.213v-365.824c0-11.443 9.293-20.762 20.736-20.762h209.357c11.443 0 20.736 9.293 20.736 20.762v248.704h132.89v-248.704c0-11.443 9.267-20.762 20.71-20.762h209.357c11.443 0 20.762 9.293 20.762 20.762v365.824l59.443-43.213c3.507-2.586 7.706-3.942 12.16-3.942 6.63 0 12.902 3.174 16.794 8.499 6.63 9.267 4.582 22.246-4.634 28.979zM234.547 652.254h50.97v-53.555l-50.97-37.069v90.624zM787.763 136.312h-167.885v248.678c0 11.418-9.293 20.736-20.762 20.736h-174.31c-11.443 0-20.736-9.318-20.736-20.736v-248.678h-167.834v375.245l275.763 200.55 275.763-200.55v-375.245z" />
<glyph unicode="&#xe92d;" glyph-name="hourglass" data-tags="hourglass" d="M793.6 682.667v85.325c0 9.421-9.037 17.075-20.122 17.075h-522.982c-11.059 0-20.096-7.654-20.096-17.075v-85.325c0-9.446 9.037-17.075 20.096-17.075h30.182v-25.498c0-87.501 58.778-167.245 150.861-206.131v-14.566c-92.058-38.861-150.861-118.502-150.861-206.054v-25.651h-30.182c-11.059 0.026-20.096-7.629-20.096-16.998v-85.376c0-9.421 9.037-17.050 20.096-17.050h522.982c11.085 0 20.122 7.629 20.122 17.050v85.376c0 9.37-9.037 17.024-20.122 17.024h-30.182v25.651c0 87.552-58.803 167.245-150.938 206.106v14.464c92.134 38.861 150.938 118.579 150.938 206.182v25.498h30.182c11.085-0.026 20.122 7.603 20.122 17.050zM731.443 153.617h21.888v-51.2h-482.714v51.2h460.826zM695.808 591.377c-3.789-14.694-14.49-34.125-14.49-34.125-23.398-42.368-64.41-77.261-117.12-96.845-7.322-2.714-12.032-8.858-12.032-15.642v-36.173c0-6.784 4.71-12.902 12.032-15.642 84.378-31.386 138.931-101.862 138.931-179.61v-25.677h-382.234v25.651c0 77.747 54.528 148.198 138.829 179.61 7.322 2.688 12.032 8.806 12.032 15.59v36.326c0 6.758-4.71 12.877-12.032 15.616-52.659 19.61-93.645 54.451-117.043 96.819-8.806 14.336-14.464 34.125-14.464 34.125-4.787 15.693-7.322 32.051-7.322 48.717v25.216h382.208v-25.216c0-16.666-2.56-33.050-7.296-48.742zM753.357 699.742h-30.157c-1.178 0-2.304-0.102-3.43-0.256h-415.565c-1.101 0.154-2.227 0.256-3.405 0.256h-30.182v51.2h482.714v-51.2z" />
<glyph unicode="&#xe92e;" glyph-name="html5" data-tags="html5" d="M512 17.067c-26.394 0-75.827 28.416-102.912 45.338-45.901 28.646-90.112 62.848-121.267 93.901-80.998 80.742-125.594 180.915-125.594 282.061v267.52c0 9.216 5.862 17.306 14.566 20.198l328.448 109.107c2.202 0.717 4.454 1.075 6.758 1.075 2.253 0 4.557-0.358 6.707-1.075l328.499-109.107c8.704-2.893 14.566-10.982 14.566-20.198v-267.546c0-101.12-44.57-201.293-125.594-282.061-31.232-31.053-75.418-65.254-121.267-93.901-27.136-16.896-76.57-45.312-102.912-45.312v0zM204.774 438.341c0-89.754 40.166-179.2 113.050-251.904 67.072-66.816 172.723-126.848 194.176-126.848s127.053 60.032 194.125 126.848c72.934 72.704 113.101 162.15 113.101 251.904v252.211l-307.226 102.093-307.226-102.093v-252.211zM512.154 201.745c-4.352 0-8.499 1.306-12.083 3.763l-155.904 107.776c-4.685 3.251-7.834 8.064-8.858 13.696-1.024 5.581 0.205 11.238 3.43 15.898 3.968 5.709 10.522 9.165 17.51 9.165 4.352 0 8.499-1.331 12.083-3.738l143.821-99.456 135.757 93.824-1.075 93.952h-290.586c-11.725 0-21.248 9.523-21.248 21.248v159.181c0 11.725 9.523 21.274 21.248 21.274h311.859c11.725 0 21.248-9.549 21.248-21.274s-9.523-21.222-21.248-21.222h-290.586v-116.685h290.586c11.725 0 21.248-9.523 21.248-21.274v-127.13c0-6.938-3.43-13.491-9.19-17.485l-155.878-107.776c-3.584-2.432-7.731-3.738-12.134-3.738v0z" />
<glyph unicode="&#xe92f;" glyph-name="idea" data-tags="idea" d="M582.298 140.638h-141.773c-12.928 0-23.347 10.496-23.347 23.347v16.41c0.154 14.106-0.538 24.013-2.022 29.542-7.962 29.158-29.030 53.606-49.434 77.312-6.733 7.757-13.082 15.155-18.918 22.605-29.363 37.35-44.979 82.099-44.979 129.562 0 115.866 94.31 210.099 210.176 210.099 115.84 0 210.125-94.234 210.125-210.099 0-47.488-15.539-92.288-44.979-129.613-5.146-6.605-11.085-13.517-17.28-20.813-20.89-24.576-44.211-51.994-52.25-80.947-1.408-5.171-2.099-14.464-1.997-27.469v-16.538c0-12.902-10.419-23.398-23.322-23.398v0zM463.923 187.384h95.027c0.256 18.176 2.022 27.136 3.635 32.973 10.829 38.989 37.658 70.656 61.338 98.458 6.221 7.322 11.674 13.722 16.512 19.814 22.861 29.082 34.97 63.872 34.97 100.762 0 90.112-73.267 163.43-163.379 163.43s-163.43-73.318-163.43-163.43c0-36.813 12.083-71.629 34.97-100.71 5.402-6.912 11.315-13.696 17.587-20.941 21.581-25.062 48.333-56.115 59.136-95.565 1.587-6.17 3.43-15.565 3.635-34.79v0zM582.298 78.814h-141.773c-12.928 0-23.347 10.47-23.347 23.398 0 12.902 10.419 23.322 23.347 23.322h141.773c12.902 0 23.322-10.419 23.322-23.322 0-12.928-10.419-23.398-23.322-23.398v0zM546.867 17.067h-70.886c-12.928 0-23.398 10.47-23.398 23.347 0 12.902 10.47 23.398 23.398 23.398h70.886c12.851 0 23.347-10.496 23.347-23.398 0-12.877-10.496-23.347-23.347-23.347v0zM885.555 416.043h-93.389c-12.902 0-23.398 10.419-23.398 23.347 0 12.902 10.496 23.347 23.398 23.347h93.389c12.902 0 23.322-10.445 23.322-23.347 0-12.928-10.419-23.347-23.322-23.347v0zM231.859 416.043h-93.414c-12.902 0-23.322 10.419-23.322 23.347 0 12.902 10.419 23.347 23.322 23.347h93.389c12.902 0 23.398-10.445 23.398-23.347 0.026-12.928-10.47-23.347-23.373-23.347v0zM512 696.133c-12.928 0-23.398 10.419-23.398 23.347v93.44c0 12.877 10.47 23.347 23.398 23.347s23.347-10.47 23.347-23.347v-93.414c0-12.928-10.419-23.373-23.347-23.373v0zM776.038 151.902c-5.939 0-11.904 2.278-16.486 6.861l-66.022 66.048c-9.114 9.088-9.114 23.91 0 33.050 9.139 9.114 23.91 9.062 33.024-0.051l66.022-66.022c9.139-9.139 9.139-23.962 0-33.075-4.557-4.582-10.496-6.81-16.538-6.81v0zM313.856 614.085c-5.939 0-11.93 2.278-16.538 6.861l-65.971 65.997c-9.139 9.139-9.139 23.962 0 33.101 9.139 9.114 23.91 9.114 33.024 0l66.022-66.022c9.139-9.114 9.139-23.962 0-33.075-4.557-4.582-10.522-6.861-16.538-6.861v0zM247.859 151.902c-5.965 0-11.93 2.227-16.512 6.81-9.139 9.114-9.139 23.936 0 33.075l66.074 66.074c9.062 9.114 23.834 9.114 32.973 0 9.139-9.139 9.139-23.962 0-33.101l-66.022-66.048c-4.582-4.557-10.522-6.81-16.512-6.81v0zM710.093 614.085c-5.965 0-11.93 2.278-16.538 6.861-9.062 9.114-9.062 23.91 0 33.024l66.022 66.022c9.062 9.114 23.936 9.165 33.024 0.051 9.139-9.139 9.139-23.91 0-33.050l-65.971-65.997c-4.557-4.582-10.522-6.912-16.538-6.912v0z" />
<glyph unicode="&#xe930;" glyph-name="image" data-tags="image" d="M145.075 123.486c-9.395 0-17.075 7.654-17.075 17.101v572.211c0 9.395 7.68 17.050 17.075 17.050h733.85c9.395 0 17.075-7.654 17.075-17.050v-572.211c0-9.446-7.68-17.101-17.075-17.101h-733.85zM180.326 157.688h658.79l-206.541 219.699-94.592-100.557c-3.251-3.456-7.757-5.299-12.646-5.299-5.76 0.205-10.342 2.688-13.414 6.707l-120.422 158.848-211.174-279.398zM632.576 419.448c4.659 0 9.19-1.946 12.416-5.35l216.806-230.605v512.154h-699.597v-505.19l215.578 285.261c3.251 4.25 8.346 6.861 13.645 6.861 5.453 0 10.394-2.509 13.645-6.81l121.83-160.64 93.158 98.995c3.277 3.379 7.808 5.325 12.518 5.325v0zM643.942 483.781c-41.37 0-75.034 33.69-75.034 75.059s33.638 75.008 75.034 75.008c41.395 0 75.059-33.638 75.059-75.008s-33.664-75.059-75.059-75.059v0zM643.942 599.646c-22.502 0-40.832-18.304-40.832-40.806s18.33-40.858 40.832-40.858c22.528 0 40.858 18.355 40.858 40.858s-18.33 40.806-40.858 40.806v0z" />
<glyph unicode="&#xe931;" glyph-name="instagram" data-tags="instagram" d="M700.749 600.056c-18.048 0-32.717 14.643-32.717 32.691v53.478c0 18.099 14.669 32.794 32.717 32.794h53.453c18.074 0 32.768-14.694 32.768-32.794v-53.453c0-18.048-14.694-32.691-32.768-32.691h-53.453zM698.342 630.366h58.291v58.291h-58.291v-58.291zM513.382 510.123c-52.275 0-94.771-42.522-94.771-94.797s42.496-94.797 94.771-94.797c52.301 0 94.822 42.522 94.822 94.797s-42.522 94.797-94.822 94.797zM513.382 355.909c-32.717 0-59.366 26.65-59.366 59.392 0 32.717 26.65 59.341 59.366 59.341 32.742 0 59.392-26.624 59.392-59.341 0-32.742-26.65-59.392-59.392-59.392zM877.44 544.913v151.040c0 54.784-44.544 99.354-99.302 99.354h-532.838c-54.758 0-99.302-44.57-99.302-99.354v-538.547c0-54.835 44.544-99.405 99.302-99.405h532.838c54.758 0 99.302 44.57 99.302 99.405l0.102 379.059c0.307 1.306 0.461 2.662 0.461 3.891s-0.179 2.586-0.563 4.557zM778.138 759.877c35.226 0 63.872-28.672 63.872-63.898v-137.933l-200.858 0.666c-35.635 32.154-81.613 49.843-129.536 49.843-29.107 0-57.165-6.349-83.482-18.893l-7.27-3.584c-18.816-8.602-32.179-21.658-33.51-22.835-1.741-1.459-3.635-3.021-6.938-5.197h-199.014v137.933c0 26.854 16.973 50.995 42.189 60.16l6.4 2.381c0.077 0.026 8.371 1.382 29.875 1.382h518.272zM511.642 257.374c-87.014 0-157.85 70.861-157.85 157.952 0 87.014 70.835 157.85 157.85 157.85 87.117 0 158.003-70.835 158.003-157.85 0-87.117-70.861-157.952-158.003-157.952zM181.402 522.616h169.6l-2.509-3.917c-19.738-31.053-30.131-66.79-30.131-103.373 0-106.624 86.707-193.357 193.28-193.357 106.65 0 193.434 86.733 193.434 193.357 0 36.659-10.419 72.397-30.157 103.398l-2.534 3.891h169.626v-365.21c0-35.277-28.646-64-63.872-64h-532.838c-35.226 0-63.898 28.723-63.898 64v365.21z" />
<glyph unicode="&#xe932;" glyph-name="kebab" data-tags="kebab" d="M210.842 535.083c-59.776 0-108.442-48.64-108.442-108.416 0-59.802 48.666-108.39 108.442-108.39 59.802 0 108.416 48.589 108.416 108.39 0.026 59.776-48.614 108.416-108.416 108.416zM210.842 354.373c-39.859 0-72.269 32.461-72.269 72.294 0 39.859 32.435 72.294 72.269 72.294 39.885 0 72.243-32.435 72.243-72.294 0.026-39.859-32.358-72.294-72.243-72.294zM512 535.083c-59.75 0-108.442-48.614-108.442-108.416s48.691-108.39 108.442-108.39c59.827 0 108.442 48.589 108.442 108.39 0 59.776-48.614 108.416-108.442 108.416zM512 354.373c-39.859 0-72.243 32.461-72.243 72.294 0 39.859 32.41 72.294 72.243 72.294 39.91 0 72.243-32.435 72.243-72.294s-32.333-72.294-72.243-72.294zM813.158 535.083c-59.75 0-108.416-48.614-108.416-108.416s48.666-108.39 108.416-108.39c59.827 0 108.442 48.589 108.442 108.39 0 59.776-48.614 108.416-108.442 108.416zM813.158 354.373c-39.834 0-72.243 32.461-72.243 72.294 0 39.859 32.435 72.294 72.243 72.294 39.91 0 72.269-32.435 72.269-72.294s-32.384-72.294-72.269-72.294z" />
<glyph unicode="&#xe933;" glyph-name="key" data-tags="key" d="M670.643 810.667c-124.262 0-225.357-101.069-225.357-225.331 0-18.022 2.15-35.891 6.374-53.299l-323.661-324.352v-165.018h178.662v90.675h90.675v90.675h90.65v90.65h78.234l51.558 51.61c17.254-4.173 34.995-6.246 52.89-6.246 124.237 0 225.357 101.043 225.357 225.306-0.026 124.237-101.146 225.331-225.382 225.331zM670.643 402.654c-18.048 0-35.917 2.637-53.094 7.859l-12.186 3.686-56.909-56.858h-103.168v-90.675h-90.65v-90.65h-90.65v-90.675h-93.312v104.73l328.986 329.6-3.738 12.262c-5.248 17.254-7.962 35.226-7.962 53.402 0 100.736 81.92 182.682 182.682 182.682 100.736 0 182.656-81.946 182.656-182.682s-81.92-182.682-182.656-182.682zM751.027 622.558c0-23.555-19.095-42.65-42.65-42.65s-42.65 19.095-42.65 42.65c0 23.555 19.095 42.65 42.65 42.65s42.65-19.095 42.65-42.65z" />
<glyph unicode="&#xe934;" glyph-name="lab" data-tags="lab" d="M601.114 207.761c3.328 0 6.63 1.357 8.986 3.738 2.381 2.381 3.738 5.632 3.738 9.011 0 3.302-1.382 6.579-3.738 8.934-2.355 2.381-5.658 3.738-8.986 3.738s-6.63-1.357-8.96-3.738c-2.381-2.355-3.738-5.632-3.738-8.934 0-3.379 1.357-6.63 3.738-9.011 2.355-2.381 5.658-3.738 8.96-3.738zM574.054 140.101c3.354 0 6.605 1.357 9.011 3.738 2.355 2.33 3.712 5.632 3.712 8.96 0 3.354-1.357 6.63-3.712 8.986-2.406 2.381-5.658 3.738-9.011 3.738-3.328 0-6.605-1.357-8.96-3.738-2.381-2.355-3.712-5.632-3.712-8.986 0-3.328 1.331-6.63 3.712-8.96 2.355-2.406 5.632-3.738 8.96-3.738zM601.114 85.905c3.328 0 6.63 1.408 8.986 3.763 2.381 2.304 3.738 5.632 3.738 8.934 0 3.328-1.382 6.63-3.738 8.96-2.355 2.381-5.658 3.763-8.986 3.763-3.379 0-6.63-1.408-8.96-3.763-2.381-2.33-3.738-5.632-3.738-8.96 0-3.302 1.357-6.63 3.738-8.934 2.355-2.355 5.658-3.763 8.96-3.763zM371.021 167.134c3.302 0 6.605 1.382 8.96 3.738 2.381 2.33 3.738 5.606 3.738 8.96 0 3.328-1.357 6.63-3.738 8.96-2.355 2.381-5.632 3.738-8.96 3.738-3.354 0-6.63-1.382-8.986-3.738-2.355-2.33-3.712-5.632-3.712-8.96 0-3.354 1.357-6.63 3.712-8.96 2.355-2.355 5.606-3.738 8.986-3.738zM357.478 99.473c3.328 0 6.63 1.331 8.96 3.712 2.355 2.381 3.738 5.658 3.738 9.011 0 3.328-1.382 6.63-3.738 8.96-2.33 2.381-5.606 3.738-8.96 3.738s-6.63-1.382-8.986-3.738c-2.381-2.33-3.738-5.581-3.738-8.96 0-3.354 1.357-6.63 3.738-9.011 2.355-2.381 5.632-3.712 8.986-3.712zM396.365 220.485c3.328 0 6.605 1.331 8.986 3.712s3.712 5.632 3.712 9.011c0 3.302-1.331 6.579-3.712 8.96-2.381 2.355-5.632 3.712-8.986 3.712s-6.63-1.357-8.986-3.712c-2.381-2.381-3.712-5.658-3.712-8.96 0-3.379 1.331-6.63 3.712-9.011s5.658-3.712 8.986-3.712zM510.464 207.71c3.302 0 6.63 1.408 8.934 3.763 2.406 2.33 3.738 5.632 3.738 8.96 0 3.354-1.357 6.63-3.738 8.986-2.304 2.381-5.632 3.738-8.934 3.738-3.328 0-6.605-1.357-8.96-3.738-2.381-2.355-3.738-5.632-3.738-8.986 0-3.328 1.357-6.63 3.738-8.96 2.355-2.355 5.632-3.763 8.96-3.763zM459.853 98.629c3.302 0 6.63 1.357 8.96 3.738 2.381 2.381 3.738 5.632 3.738 9.011 0 3.302-1.382 6.63-3.738 8.96-2.33 2.355-5.632 3.738-8.96 3.738-3.354 0-6.63-1.408-9.011-3.738s-3.712-5.606-3.712-8.96c0-3.379 1.331-6.63 3.712-9.011s5.658-3.738 9.011-3.738zM449.843 153.592c3.328 0 6.605 1.357 8.986 3.712 2.381 2.381 3.712 5.658 3.712 9.011 0 3.379-1.331 6.63-3.712 8.96-2.381 2.381-5.632 3.763-8.986 3.763s-6.63-1.408-8.986-3.763c-2.381-2.33-3.712-5.581-3.712-8.96 0-3.354 1.331-6.63 3.712-9.011 2.355-2.355 5.632-3.712 8.986-3.712zM677.658 177.656c2.355 2.33 3.712 5.606 3.712 8.96 0 3.328-1.357 6.63-3.712 8.96-2.381 2.381-5.658 3.738-9.011 3.738-3.302 0-6.605-1.382-8.96-3.738-2.355-2.33-3.738-5.632-3.738-8.96 0-3.354 1.382-6.63 3.738-8.96 2.355-2.381 5.658-3.738 8.96-3.738 3.354 0 6.63 1.382 9.011 3.738zM691.174 109.944c2.381 2.381 3.738 5.658 3.738 9.011 0 3.379-1.357 6.63-3.738 8.96-2.355 2.381-5.632 3.738-8.986 3.738s-6.63-1.382-8.96-3.738c-2.381-2.33-3.738-5.632-3.738-8.96 0-3.354 1.382-6.63 3.738-9.011 2.33-2.381 5.606-3.712 8.96-3.712s6.63 1.331 8.986 3.712zM781.107 116.113l-159.846 446.054v226.15h15.744c9.702 0 17.613 7.885 17.613 17.562 0 9.702-7.91 17.613-17.613 17.613h-250.010c-9.677 0-17.587-7.91-17.587-17.613 0-9.677 7.885-17.562 17.587-17.562h15.77l0.307-224.486-160.179-447.718c-7.834-21.888-5.709-43.878 5.914-60.339 11.571-16.461 31.539-25.907 54.835-25.907h416.717c23.296 0 43.29 9.446 54.861 25.907 11.597 16.461 13.722 38.451 5.888 60.339zM436.838 554.078c0.717 1.869 1.075 3.891 1.075 5.914v34.995h41.574c8.038 0 14.566 6.528 14.566 14.566s-6.528 14.566-14.566 14.566h-41.574v21.478h41.574c8.038 0 14.566 6.528 14.566 14.566s-6.528 14.566-14.566 14.566h-41.574v21.478h41.574c8.038 0 14.566 6.528 14.566 14.592 0 8.038-6.528 14.566-14.566 14.566h-41.574v62.95h148.198v-228.326c0-2.022 0.358-4.045 1.050-5.914l88.55-247.526h-327.424l88.55 247.526zM746.496 75.998c-4.966-7.117-14.259-10.982-26.138-10.982h-416.717c-11.853 0-21.146 3.891-26.138 10.982-5.018 7.066-5.555 17.152-1.562 28.262l61.901 173.107h348.262l61.926-173.056c4.019-11.162 3.43-21.248-1.536-28.314z" />
<glyph unicode="&#xe935;" glyph-name="left" data-tags="left" d="M683.878 68.267c-5.683 0-11.315 2.125-15.667 6.426l-343.782 336.896c-4.275 4.198-6.707 9.984-6.707 15.974 0 6.042 2.432 11.827 6.707 16.026l341.862 335.053c8.806 8.678 22.989 8.55 31.667-0.282 8.653-8.858 8.474-23.014-0.333-31.667l-325.504-319.13 327.424-320.922c8.832-8.627 8.986-22.835 0.333-31.667-4.378-4.454-10.24-6.707-16-6.707z" />
<glyph unicode="&#xe936;" glyph-name="like" data-tags="like" d="M902.912 398.302c5.171 16.307 5.888 33.229 5.888 49.024 0 52.864-34.867 64.282-61.107 68.275-21.402 3.277-96.845 5.555-141.747 6.682 2.483 3.098 5.197 6.298 7.962 9.626 23.322 27.776 58.598 69.786 54.938 146.586-2.253 46.387-15.462 80.154-39.322 100.403-22.938 19.558-47.462 19.302-53.734 18.893-46.31-0.538-52.992-49.715-57.907-85.632-3.149-23.347-6.733-49.792-17.946-58.394-42.931-32.973-89.395-72.576-108.442-115.917-20.224-45.926-40.934-83.968-90.291-83.968h-24.755v61.491h-261.248v-448.384h261.274v55.757c56.397-1.715 81.178-12.749 102.63-30.874 32.614-27.597 61.056-36.403 117.069-36.403 71.424 0 166.093 1.946 211.712 11.213 15.283 3.098 35.61 11.315 45.44 32.563 5.555 12.032 7.091 24.627 7.859 34.253 0.205 2.611 0.256 5.35 0.307 7.987 0.051 2.842 0.154 7.68 0.589 10.47 0.512 0.512 0.998 0.998 1.536 1.613 7.834 8.73 16.742 18.688 21.069 34.253 4.198 14.822 4.762 29.978 4.762 42.701 0 10.778-2.714 18.79-5.146 25.83-0.64 1.92-1.254 3.712-1.792 5.504 0.896 1.869 2.995 4.813 4.352 6.784 2.79 4.045 5.99 8.627 8.038 13.875 6.733 17.101 7.27 35.251 7.27 50.97 0 6.963-0.461 17.306-4.173 27.315-2.253 6.042-5.376 10.342-8.448 13.645 0.461 0.41 0.896 0.845 1.331 1.306 6.323 6.477 9.523 14.669 12.032 22.554zM338.227 104.952h-184.781v372.429h184.781v-372.429zM866.458 409.771c-1.638-5.146-2.611-7.014-2.995-7.526-0.486-0.512-1.638-1.434-2.662-2.33-5.606-4.762-15.002-12.646-15.232-25.37-0.128-7.398 3.123-14.49 9.216-20.045 1.28-1.203 2.534-2.278 3.738-3.277 3.2-2.688 3.251-2.842 3.558-3.661 1.613-4.301 1.792-10.086 1.792-14.106 0-12.262-0.358-26.189-4.659-37.171-0.461-1.152-2.56-4.173-3.891-6.118-5.811-8.32-14.49-20.813-10.368-36.25 0.973-3.661 2.099-6.886 3.072-9.728 1.869-5.504 3.123-9.165 3.123-13.67 0-10.214-0.435-22.067-3.328-32.563-1.818-6.477-5.606-11.059-12.058-18.278-1.638-1.254-4.608-3.712-6.912-7.859-5.299-9.523-5.504-20.634-5.683-29.619-0.026-2.176-0.077-4.25-0.205-5.786-0.512-6.451-1.459-14.746-4.48-21.274-0.947-2.074-3.789-8.294-18.432-11.238-33.075-6.758-105.549-10.445-203.981-10.445-51.558 0-69.453 8.038-92.288 27.341-27.366 23.091-59.29 37.888-127.411 39.91v255.206h24.755c78.413 0 107.776 66.765 125.286 106.675 15.642 35.61 57.754 71.117 96.845 101.146 23.603 18.099 28.134 51.251 32.486 83.328 2.176 15.923 4.403 32.384 8.934 42.906 3.942 9.165 7.398 9.856 11.853 9.856 0.717 0 1.408 0.051 2.099 0.102 0.128 0.051 13.312 0.87 26.010-9.856 15.334-12.979 24.294-38.349 25.958-73.344 2.944-62.054-24.269-94.464-46.131-120.55-13.568-16.154-26.419-31.437-28.237-50.381-0.512-5.274 1.203-10.47 4.762-14.413 3.558-3.968 8.55-6.272 13.901-6.374 51.994-1.050 145.741-3.686 166.938-6.886 23.296-3.558 28.646-9.344 28.646-30.771 0.077-12.8-0.435-26.214-4.019-37.581z" />
<glyph unicode="&#xe937;" glyph-name="link" data-tags="link" d="M283.827 29.918c-16.768 0-32.563 6.554-44.467 18.406l-105.677 105.728c-11.93 11.878-18.483 27.699-18.483 44.467 0 16.794 6.554 32.614 18.483 44.493l213.862 213.888c11.93 11.878 27.725 18.406 44.493 18.406 16.794 0 32.614-6.528 44.442-18.406l37.965-37.99 45.338 45.338-38.016 37.939c-11.853 11.878-18.432 27.699-18.432 44.493s6.579 32.563 18.432 44.467l213.914 213.862c11.853 11.904 27.648 18.432 44.467 18.432s32.614-6.502 44.467-18.432l105.728-105.677c11.878-11.853 18.432-27.648 18.432-44.467s-6.554-32.64-18.432-44.493l-213.888-213.888c-11.878-11.904-27.674-18.432-44.493-18.432-16.742 0-32.563 6.528-44.442 18.432l-37.965 37.99-45.312-45.338 37.965-37.939c11.93-11.878 18.432-27.674 18.432-44.442 0-16.794-6.502-32.589-18.432-44.493l-213.862-213.888c-11.904-11.904-27.699-18.458-44.518-18.458v0zM392.013 433.144c-3.2 0-9.344-0.768-14.618-6.042l-213.914-213.914c-5.274-5.274-6.067-11.469-6.067-14.669s0.794-9.37 6.067-14.643l105.728-105.728c5.299-5.299 11.443-6.067 14.618-6.067 3.2 0 9.395 0.768 14.669 6.067l213.914 213.862c5.299 5.299 6.042 11.469 6.042 14.694 0 3.174-0.742 9.318-6.042 14.592l-37.965 38.042-63.539-63.59c-3.968-3.994-9.267-6.195-14.874-6.195-5.683 0-10.957 2.202-14.899 6.195-8.218 8.243-8.218 21.606-0.051 29.773l63.59 63.565-37.965 37.965c-5.325 5.325-11.494 6.093-14.694 6.093v0zM631.066 566.801c5.606 0 10.906-2.176 14.848-6.144 3.994-3.994 6.246-9.293 6.246-14.925s-2.253-10.906-6.195-14.874l-66.662-66.611 38.016-37.965c5.274-5.274 11.418-6.042 14.618-6.042 3.226 0 9.395 0.768 14.694 6.016l213.862 213.914c5.325 5.274 6.067 11.469 6.067 14.694 0 3.2-0.742 9.344-6.016 14.669l-105.702 105.677c-5.325 5.325-11.494 6.093-14.694 6.093s-9.395-0.768-14.669-6.093l-213.862-213.862c-5.325-5.274-6.118-11.469-6.118-14.669s0.794-9.37 6.042-14.669l37.965-37.965 66.586 66.611c4.070 3.942 9.344 6.144 14.976 6.144v0z" />
<glyph unicode="&#xe938;" glyph-name="linkedin" data-tags="linkedin" d="M719.59 58.027c-8.96 0-16.256 7.27-16.256 16.23v246.682c0 89.19-45.773 89.19-63.027 89.19-48.077 0-72.422-30.003-72.422-89.19v-246.707c0-8.96-7.27-16.23-16.23-16.23h-139.494c-8.96 0-16.23 7.27-16.23 16.23v469.939c0 8.96 7.27 16.23 16.23 16.23h139.52c8.96 0 16.23-7.27 16.23-16.23v-17.51l8.397 6.938c33.024 27.315 72.422 41.165 117.094 41.165 55.219 0 101.709-17.638 134.426-51.046 34.56-35.277 52.813-87.808 52.813-151.885v-297.6c0-8.96-7.296-16.23-16.256-16.23h-144.794zM640.333 442.641c35.686 0 95.539-15.821 95.539-121.702v-230.451h112.256v281.344c0 108.314-56.397 170.419-154.726 170.419-87.808 0-125.85-66.304-127.437-69.12-2.867-5.197-8.294-8.422-14.208-8.422-1.331 0-2.688 0.205-4.070 0.538-7.219 1.818-12.262 8.243-12.262 15.616v47.027h-107.008v-437.427h107.008v230.477c0 76.211 39.219 121.702 104.909 121.702v0zM173.568 58.027c-8.96 0-16.256 7.27-16.256 16.23v469.914c0 8.96 7.296 16.23 16.256 16.23h145.536c8.96 0 16.23-7.27 16.23-16.23v-469.914c0-8.96-7.27-16.23-16.23-16.23h-145.536zM189.824 90.488h113.024v437.427h-113.024v-437.427zM245.683 589.509c-56.422 0-102.323 46.157-102.323 102.886 0 56.755 45.901 102.912 102.323 102.912 56.346 0 102.221-46.182 102.221-102.938 0-56.704-45.875-102.861-102.221-102.861v0zM245.683 762.897c-38.502 0-69.811-31.616-69.811-70.502 0-38.861 31.309-70.426 69.811-70.426 38.477 0 69.76 31.565 69.76 70.426-0.026 38.861-31.283 70.502-69.76 70.502v0z" />
<glyph unicode="&#xe939;" glyph-name="list" data-tags="list" d="M873.574 714.923h-433.894c-13.082 0-23.731-10.65-23.731-23.706 0-13.107 10.65-23.757 23.731-23.757h433.894c13.056 0 23.706 10.675 23.706 23.757s-10.65 23.706-23.706 23.706zM873.574 450.373h-433.894c-13.082 0-23.731-10.65-23.731-23.731s10.65-23.731 23.731-23.731h433.894c13.056 0 23.706 10.65 23.706 23.731s-10.65 23.731-23.706 23.731zM873.574 185.797h-433.894c-13.082 0-23.731-10.65-23.731-23.731s10.65-23.731 23.731-23.731h433.894c13.056 0 23.706 10.65 23.706 23.731s-10.65 23.731-23.706 23.731zM196.275 80.273c-10.138 0-18.355 8.192-18.355 18.304v127.002c0 10.138 8.218 18.355 18.355 18.355h127.002c10.112 0 18.355-8.218 18.355-18.355v-127.002c0-10.112-8.243-18.304-18.355-18.304h-127.002zM214.63 116.933h90.266v90.291h-90.266v-90.291zM196.275 344.824c-10.138 0-18.355 8.192-18.355 18.33v127.002c0 10.138 8.218 18.355 18.355 18.355h127.002c10.112 0 18.355-8.218 18.355-18.355v-127.002c0-10.138-8.243-18.33-18.355-18.33h-127.002zM214.63 381.509h90.266v90.291h-90.266v-90.291zM196.275 609.374c-10.138 0-18.355 8.218-18.355 18.355v126.976c0 10.112 8.218 18.355 18.355 18.355h127.002c10.112 0 18.355-8.243 18.355-18.355v-127.002c0-10.138-8.243-18.355-18.355-18.355h-127.002zM214.63 646.059h90.266v90.317h-90.266v-90.317z" />
<glyph unicode="&#xe93a;" glyph-name="location" data-tags="location" d="M512.256 4.267c-7.091 0-13.747 3.507-17.741 9.421l-252.134 373.837c-29.978 47.642-45.824 102.221-45.824 157.747 0 167.501 141.517 303.795 315.443 303.795 173.952 0 315.443-136.294 315.443-303.795 0-55.398-15.667-109.67-45.312-156.902l-252.186-374.682c-3.942-5.914-10.598-9.421-17.69-9.421v0zM512 806.315c-150.349 0-272.691-117.094-272.691-261.043 0-47.462 13.44-93.926 38.912-134.426l233.984-346.88 234.138 347.674c25.114 40.090 38.374 86.298 38.374 133.632-0.026 143.949-122.368 261.043-272.717 261.043v0zM512 404.728c-80.87 0-146.637 63.539-146.637 141.696 0 78.106 65.766 141.67 146.637 141.67s146.662-63.565 146.662-141.67c0-78.157-65.818-141.696-146.662-141.696v0zM512 645.342c-57.267 0-103.859-44.39-103.859-98.918s46.592-98.944 103.859-98.944 103.885 44.39 103.885 98.944c0 54.528-46.643 98.918-103.885 98.918v0z" />
<glyph unicode="&#xe93b;" glyph-name="map" data-tags="map" d="M649.728 46.558c-1.69 0-3.482 0.23-5.274 0.614l-268.749 65.562-271.616-65.562c-1.766-0.41-3.558-0.614-5.248-0.614-4.89 0-9.728 1.638-13.619 4.71-5.35 4.198-8.422 10.547-8.422 17.357v648.986c0 10.163 6.912 18.97 16.819 21.402l275.456 67.149 10.419-0.077 268.902-65.485 271.539 65.562c1.664 0.41 3.456 0.589 5.197 0.589 4.992 0 9.728-1.613 13.645-4.685 5.376-4.173 8.422-10.496 8.422-17.306v-649.011c0-10.163-6.912-18.97-16.794-21.427l-275.43-67.123c-1.766-0.41-3.558-0.64-5.248-0.64v0zM396.314 153.054l231.398-56.397v603.648l-231.398 56.397v-603.648zM671.744 700.305v-603.648l231.398 56.371v603.674l-231.398-56.397zM120.858 700.305v-603.648l231.398 56.371v603.674l-231.398-56.397z" />
<glyph unicode="&#xe93c;" glyph-name="megaphone" data-tags="megaphone" d="M901.197 708.216c-4.813 3.661-11.059 4.864-16.896 3.302l-672.179-185.165-72.166 20.941c-5.811 1.664-12.16 0.512-16.998-3.123-4.89-3.635-7.757-9.37-7.757-15.488v-198.81c0-6.144 2.918-11.955 7.91-15.565 4.941-3.661 11.341-4.762 17.229-2.893l67.354 21.018c1.357-0.307 2.816-0.435 4.275-0.435 1.664 0 3.251 0.179 4.787 0.589l106.65-30.464c0-0.23-0.026-0.435-0.026-0.691 1.101-42.982 18.688-83.251 49.587-113.408 30.925-30.259 71.731-46.874 114.867-46.874 56.038 0 107.443 28.262 137.677 74.65l258.662-73.882c1.69-0.538 3.533-0.768 5.299-0.768 4.173 0 8.243 1.357 11.648 3.917 4.89 3.635 7.706 9.37 7.706 15.462v532.275c-0.026 6.067-2.816 11.75-7.629 15.411zM624.691 256.35c-1.869 0.845-3.84 1.408-5.811 1.613l-387.533 110.72v122.752l561.306 154.65v-437.786l-167.962 48.051zM153.907 502.878l38.707-11.187v-123.341l-38.707-12.109v146.637zM487.808 179.883c-63.667 0-117.402 48.794-124.877 110.925l223.027-63.718c-23.603-29.568-59.469-47.206-98.15-47.206zM870.093 186.181l-38.733 11.085v459.494l38.733 10.65v-481.229z" />
<glyph unicode="&#xe93d;" glyph-name="microphone" data-tags="microphone" d="M751.718 536.491c-11.034 0-19.968-8.96-19.968-19.968v-99.866c0-121.165-98.586-219.776-219.75-219.776s-219.776 98.611-219.776 219.776v99.866c0 11.034-8.96 19.968-19.968 19.968-11.059 0-19.968-8.96-19.968-19.968v-99.866c0-136.474 105.83-248.73 239.744-258.97v-100.659h-139.853c-11.059 0-19.994-8.934-19.994-19.968s8.96-19.968 19.994-19.968h319.642c11.034 0 19.968 8.96 19.968 19.968 0 11.059-8.96 19.968-19.968 19.968h-139.853v100.659c133.888 10.24 239.744 122.496 239.744 258.97v99.866c0.026 11.008-8.934 19.968-19.994 19.968zM512 246.827c93.619 0 169.805 76.16 169.805 169.805v249.856c0 93.594-76.186 169.779-169.805 169.779s-169.805-76.186-169.805-169.805v-249.856c0-93.645 76.186-169.779 169.805-169.779zM382.157 666.462c0 71.603 58.24 129.843 129.843 129.843s129.843-58.24 129.843-129.843v-249.856c0-71.603-58.24-129.843-129.843-129.843s-129.843 58.24-129.843 129.843v249.856z" />
<glyph unicode="&#xe93e;" glyph-name="mobile" data-tags="mobile" d="M688.742 813.227h-353.536c-38.042 0-68.966-31.565-68.966-70.4v-632.397c0-38.784 30.925-70.298 68.966-70.298h353.536c38.042 0 68.992 31.514 68.992 70.298v632.397c0.026 38.81-30.925 70.4-68.992 70.4zM512 128.555c5.555 0 10.061-4.634 10.061-10.291 0-5.734-4.506-10.394-10.061-10.394s-10.061 4.685-10.061 10.394c0 5.683 4.506 10.291 10.061 10.291zM303.744 156.817l196.378 0.563c-16.461-5.197-28.518-20.685-28.518-39.117 0-19.456 13.338-35.712 31.13-40.013h-167.501c-17.357 0-31.462 14.413-31.462 32.154v46.413zM552.397 118.264c0 18.56-12.186 34.074-28.749 39.194l196.557 0.563v-47.616c0-17.715-14.106-32.154-31.462-32.154h-167.475c17.818 4.326 31.13 20.557 31.13 40.013zM721.408 195.064l-417.638-1.229v464.435l416.461 1.178 1.178-464.384zM335.206 775.006h353.536c17.357 0 31.462-14.438 31.462-32.282l1.152-46.336-417.613-1.152v47.59c0 17.741 14.131 32.179 31.462 32.179zM458.163 720.325h107.648c8.346 0 15.155 6.912 15.155 15.411 0 8.525-6.81 15.462-15.155 15.462h-107.648c-8.346 0-15.155-6.938-15.155-15.462 0.026-8.525 6.81-15.411 15.155-15.411z" />
<glyph unicode="&#xe93f;" glyph-name="monitor" data-tags="monitor" d="M536.781 291.448c0-13.813-11.095-25.011-24.781-25.011s-24.781 11.198-24.781 25.011c0 13.813 11.095 25.011 24.781 25.011s24.781-11.198 24.781-25.011zM876.544 788.881h-729.114c-12.109 0-21.99-9.83-21.99-21.939v-557.107c0-12.134 9.882-21.99 21.99-21.99h342.554v-79.462h-156.288c-12.134 0-21.99-9.856-21.99-21.939 0-12.134 9.882-21.99 21.99-21.99h356.659c12.134 0 21.99 9.882 21.99 21.99s-9.882 21.939-21.99 21.939h-156.339v79.462h342.528c12.16 0 21.99 9.882 21.99 21.99v557.107c0.026 12.109-9.83 21.939-21.99 21.939zM169.446 399.454v345.498h685.107v-345.498h-685.107zM169.446 231.851v123.648h685.107v-123.648h-685.107z" />
<glyph unicode="&#xe940;" glyph-name="music" data-tags="music" d="M845.747 242.705c0 0.051 0 0.154 0 0.205v547.84c0 5.811-2.56 11.264-6.938 15.155-4.454 3.763-10.291 5.427-16.051 4.557l-379.008-57.677c-9.754-1.51-16.998-9.856-16.998-19.738v-478.797c-19.533 12.851-44.979 20.070-73.626 20.070-23.347 0-47.923-4.864-71.091-14.054-35.712-14.234-65.638-37.504-84.25-65.587-20.096-30.31-24.934-62.694-13.568-91.213 14.925-37.478 56.192-60.8 107.648-60.8 23.347 0 47.923 4.813 71.091 14.080 35.712 14.182 65.638 37.504 84.25 65.536 13.67 20.634 20.25 42.138 19.507 62.797 0 0.051 0 0.154 0 0.205v410.752l339.046 51.558v-335.693c-19.533 12.877-44.979 20.122-73.6 20.122-23.322 0-47.898-4.864-71.066-14.080-35.738-14.234-65.638-37.478-84.25-65.587-20.096-30.285-24.909-62.669-13.594-91.187 14.95-37.555 56.166-60.851 107.648-60.851 23.322 0 47.898 4.813 71.066 14.080 35.738 14.182 65.664 37.478 84.25 65.51 13.67 20.659 20.224 42.189 19.533 62.797zM413.875 144.35c-14.131-21.299-37.453-39.219-65.69-50.483-18.509-7.347-38.016-11.238-56.32-11.238-34.739 0-61.773 13.67-70.502 35.712-6.349 15.949-2.893 35.277 9.754 54.374 14.157 21.299 37.453 39.219 65.69 50.432 18.509 7.373 37.99 11.264 56.32 11.264 34.765 0 61.773-13.696 70.502-35.686 6.374-15.974 2.893-35.277-9.754-54.374zM466.714 636.433v79.437l339.046 51.558v-79.437l-339.046-51.558zM792.909 202.001c-14.131-21.35-37.453-39.27-65.664-50.458-18.534-7.347-37.99-11.238-56.32-11.238-34.765 0-61.798 13.645-70.528 35.686-6.323 15.974-2.867 35.277 9.779 54.323 14.131 21.35 37.453 39.27 65.664 50.483 18.534 7.398 37.99 11.29 56.346 11.29 34.714 0 61.747-13.722 70.528-35.712 6.349-15.949 2.842-35.277-9.805-54.374z" />
<glyph unicode="&#xe941;" glyph-name="network" data-tags="network" d="M736.179 29.867c-65.459 0-118.707 53.222-118.707 118.707 0 13.005 2.432 26.112 7.45 39.987l1.357 3.763-250.573 157.952-2.816-2.944c-22.656-23.347-52.864-36.25-85.043-36.25-65.434 0-118.682 53.274-118.682 118.733 0 65.485 53.248 118.707 118.682 118.707 31.77 0 61.67-12.518 84.198-35.174l2.714-2.739 252.851 146.714-1.613 3.994c-5.658 14.285-8.525 28.954-8.525 43.52 0 65.434 53.248 118.656 118.707 118.656 65.434 0 118.682-53.222 118.682-118.656 0-65.51-53.248-118.758-118.682-118.758-31.59 0-61.363 12.339-83.84 34.765l-2.714 2.739-253.030-146.816 1.587-4.019c5.555-14.182 8.371-28.646 8.371-42.957 0-13.645-2.662-27.674-7.987-41.651l-1.459-3.814 250.086-157.594 2.842 2.97c22.835 24.243 53.402 37.53 86.144 37.53 65.434 0 118.682-53.197 118.682-118.656 0-65.485-53.248-118.707-118.682-118.707v0zM736.179 227.038c-26.931 0-51.686-13.67-66.227-36.685l-1.331-2.406c-7.27-12.467-10.982-25.702-10.982-39.398 0-43.29 35.226-78.515 78.515-78.515 43.264 0 78.49 35.226 78.49 78.515 0.026 43.29-35.2 78.49-78.464 78.49v0zM287.821 508.305c-43.264 0-78.49-35.226-78.49-78.515 0-43.264 35.226-78.541 78.49-78.541 26.65 0 51.251 13.491 65.818 35.994 8.422 13.389 12.698 27.878 12.698 42.547 0 13.363-3.584 26.317-10.522 38.605-2.227 2.406-3.405 3.866-4.326 5.453l-1.152 2.97c-15.053 20.019-37.862 31.488-62.515 31.488v0zM736.179 783.301c-43.29 0-78.515-35.226-78.515-78.464 0-43.315 35.226-78.566 78.515-78.566 43.264 0 78.49 35.251 78.49 78.566 0 43.238-35.226 78.464-78.49 78.464v0z" />
<glyph unicode="&#xe942;" glyph-name="paper" data-tags="paper" d="M240.922 42.667c-10.522 0-19.405 8.755-19.405 19.098v729.498c0 10.701 8.678 19.405 19.405 19.405h376.474c5.069 0 10.086-2.15 13.978-6.042l165.094-165.402c3.84-3.328 6.016-8.294 6.016-13.696v-563.738c0-10.368-8.883-19.123-19.405-19.123h-542.157zM260.352 81.169h503.603v524.979h-146.586c-10.726 0-19.43 8.704-19.43 19.379v146.637h-337.587v-690.995zM636.8 644.651h99.84l-99.84 100.198v-100.198z" />
<glyph unicode="&#xe943;" glyph-name="performance" data-tags="performance" d="M512 299.793c-31.027 0-56.269 25.242-56.269 56.269 0 1.306 0.026 2.637 0.128 3.917l-191.386 78.874c-9.139 3.789-13.491 14.31-9.728 23.424 2.765 6.733 9.267 11.059 16.538 11.059 2.381 0 4.685-0.461 6.835-1.331l191.437-78.925c10.624 12.109 26.342 19.277 42.445 19.277 9.882 0 17.894-8.013 17.894-17.894 0-9.856-8.013-17.869-17.894-17.869-7.578 0-14.515-4.198-18.125-10.931-0.742-2.586-1.306-3.635-1.946-4.71-0.179-1.024-0.461-3.046-0.461-4.89 0-11.29 9.216-20.506 20.531-20.506s20.506 9.19 20.506 20.506c0 9.882 8.013 17.894 17.894 17.894s17.894-8.013 17.894-17.894c0-31.027-25.242-56.269-56.294-56.269v0zM843.802 120.568c-3.507 0-6.938 1.024-9.907 2.97-3.994 2.637-6.733 6.63-7.68 11.29-0.973 4.71-0.051 9.498 2.637 13.491 9.702 14.822 18.432 30.413 25.984 46.387l-30.387 12.518c-4.48 1.894-7.936 5.35-9.728 9.779-1.792 4.454-1.792 9.318 0.077 13.696 2.688 6.707 9.216 11.034 16.538 11.034 2.33 0 4.608-0.461 6.784-1.331l30.438-12.621c12.774 35.533 20.122 72.653 21.862 110.413h-32.819c-9.856 0-17.869 8.013-17.869 17.869 0 9.882 8.013 17.894 17.869 17.894h32.845c-1.741 37.965-9.062 75.11-21.811 110.438l-30.464-12.621c-2.099-0.896-4.429-1.357-6.861-1.357-7.296 0-13.798 4.326-16.563 11.059-1.818 4.403-1.818 9.267 0 13.696 1.818 4.403 5.248 7.859 9.702 9.702l30.541 12.672c-16.102 33.997-37.171 65.434-62.746 93.44l-23.219-23.194c-3.354-3.379-7.859-5.222-12.621-5.222-4.813 0-9.318 1.843-12.672 5.222-3.379 3.354-5.248 7.885-5.248 12.672s1.869 9.293 5.274 12.672l23.194 23.194c-28.006 25.523-59.443 46.592-93.466 62.694l-12.646-30.541c-2.79-6.707-9.293-11.034-16.538-11.034-2.355 0-4.685 0.461-6.861 1.331-4.429 1.818-7.885 5.274-9.728 9.728-1.792 4.429-1.818 9.267-0.026 13.696l12.672 30.515c-35.379 12.698-72.499 19.994-110.438 21.76v-32.845c0-9.856-8.013-17.869-17.894-17.869-9.856 0-17.869 8.013-17.869 17.869v32.87c-38.093-1.741-75.213-9.062-110.464-21.76l12.698-30.515c3.712-9.114-0.666-19.635-9.779-23.424-2.202-0.87-4.506-1.306-6.861-1.306-7.219 0-13.722 4.301-16.512 10.957l-12.698 30.592c-34.022-16.077-65.459-37.146-93.466-62.694l23.219-23.245c3.354-3.354 5.248-7.834 5.248-12.621 0-4.813-1.869-9.293-5.248-12.672-3.328-3.379-7.834-5.222-12.672-5.222s-9.344 1.843-12.672 5.222l-23.245 23.194c-25.6-28.109-46.669-59.494-62.669-93.44l30.515-12.646c4.403-1.818 7.859-5.248 9.677-9.677 1.843-4.429 1.869-9.293 0-13.747-2.765-6.733-9.267-11.059-16.538-11.059-2.458 0-4.787 0.486-6.938 1.408l-30.438 12.595c-12.698-35.302-20.019-72.448-21.786-110.464h32.87c9.882 0 17.92-8.013 17.92-17.894 0-9.856-8.038-17.869-17.92-17.869h-32.87c1.766-37.888 9.139-75.008 21.914-110.413l30.387 12.621c2.253 0.87 4.531 1.331 6.835 1.331 7.296 0 13.824-4.352 16.589-11.085 1.843-4.403 1.843-9.242 0-13.67-1.818-4.429-5.274-7.885-9.677-9.728l-30.387-12.544c7.526-15.949 16.282-31.539 26.035-46.413 2.637-3.968 3.533-8.781 2.56-13.44-0.973-4.685-3.712-8.704-7.706-11.315-2.893-1.92-6.323-2.944-9.83-2.944-6.042 0-11.648 3.021-14.976 8.090-44.493 67.61-67.994 146.253-67.994 227.354 0 110.797 43.136 214.938 121.472 293.248 78.31 78.336 182.451 121.446 293.248 121.446 110.848 0 214.989-43.136 293.248-121.446 78.336-78.31 121.446-182.451 121.446-293.248 0-81.126-23.475-159.744-67.917-227.405-3.328-5.069-8.934-8.090-14.976-8.090v0zM396.646 82.577c-24.013 0-43.494 19.507-43.494 43.469v51.149c0 24.013 19.507 43.494 43.494 43.494h230.246c23.987 0 43.469-19.507 43.469-43.494v-51.149c0-23.987-19.507-43.469-43.469-43.469h-230.246zM396.646 184.901c-4.25 0-7.706-3.456-7.706-7.706v-51.149c0-4.25 3.456-7.706 7.706-7.706h230.246c4.25 0 7.706 3.456 7.706 7.706v51.149c0 4.25-3.456 7.706-7.706 7.706h-230.246zM498.97 133.752c-9.882 0-17.894 8.013-17.894 17.869 0 9.882 8.013 17.894 17.894 17.894h25.6c9.856 0 17.869-8.013 17.869-17.894 0-9.856-8.013-17.869-17.869-17.869h-25.6zM434.995 133.752c-9.882 0-17.894 8.013-17.894 17.869 0 9.882 8.013 17.894 17.894 17.894h25.6c9.882 0 17.894-8.013 17.894-17.894 0-9.856-8.013-17.869-17.894-17.869h-25.6zM562.944 133.752c-9.882 0-17.894 8.013-17.894 17.869 0 9.882 8.013 17.894 17.894 17.894h25.574c9.882 0 17.894-8.013 17.894-17.894 0-9.856-8.013-17.869-17.894-17.869h-25.574z" />
<glyph unicode="&#xe944;" glyph-name="phone" data-tags="phone" d="M317.926 42.667c-56.909 0-109.875 30.72-138.214 80.23l-43.674 76.288c-16.666 29.286-6.528 66.662 22.682 83.482l101.862 63.411c9.446 5.402 20.301 8.269 31.232 8.269 20.941 0 40.115-10.522 51.302-28.186l14.31-22.528c4.403-6.605 11.469-10.547 18.918-10.547 2.816 0 5.581 0.589 8.090 1.69 55.219 22.042 127.462 86.912 148.326 106.214 0.998 1.050 84.634 88.371 110.899 153.267 3.866 9.523 0.23 20.813-8.755 26.726l-22.605 14.413c-27.546 17.638-36.352 53.658-20.096 82.048l64.051 103.142c4.557 7.962 23.91 30.080 52.864 30.080 10.086 0 20.403-2.739 30.746-8.192l75.878-43.392c63.539-36.48 94.592-112.845 73.856-181.658-36.403-121.062-105.114-229.862-204.262-323.379-94.003-99.43-202.957-168.243-324.019-204.826-13.85-4.352-28.442-6.554-43.392-6.554v0zM291.354 315.793c-4.045 0-7.987-1.101-11.418-3.251l-101.453-63.155c-5.299-2.944-9.395-8.090-11.034-14.054-1.613-5.683-0.87-11.674 2.048-16.819l43.674-76.365c21.658-37.786 62.694-63.155 102.067-63.155 12.774 0 25.088 2.611 36.582 7.706 262.067 116.608 392.986 247.526 500.224 500.378 20.429 48.051-3.994 108.8-55.501 138.317l-76.339 43.699c-3.61 1.997-7.962 3.149-11.955 3.149-8.627 0-16.051-5.043-19.405-13.184l-63.258-101.376c-5.683-10.189-2.099-23.373 7.91-29.568l22.246-14.182c24.909-15.949 34.995-47.13 24.013-74.112-28.57-70.374-114.842-161.357-118.528-165.197-0.742-0.691-92.339-87.731-162.534-115.891-7.091-2.842-14.566-4.301-22.221-4.301-20.89 0-40.192 10.65-51.661 28.467l-14.234 22.528c-3.456 5.12-10.291 10.368-19.226 10.368v0zM173.261 500.088c-10.675 0-19.302 8.627-19.302 19.277 0 146.381 119.014 265.472 265.318 265.472 10.675 0 19.328-8.704 19.328-19.302 0-10.624-8.653-19.328-19.328-19.328-124.979 0-226.714-101.658-226.714-226.688-0.026-10.701-8.678-19.43-19.302-19.43v0zM315.981 500.088c-10.65 0-19.277 8.627-19.277 19.277 0 67.61 54.963 122.547 122.573 122.547 10.675 0 19.328-8.653 19.328-19.302 0-10.624-8.653-19.277-19.328-19.277-46.31 0-83.968-37.683-83.968-83.968-0.026-10.65-8.653-19.277-19.328-19.277v0z" />
<glyph unicode="&#xe945;" glyph-name="photo" data-tags="photo" d="M877.722 143.326h-731.469c-10.061 0-18.253 8.192-18.253 18.304v438.707c0 10.061 8.192 18.253 18.253 18.253h54.963v27.366c0 10.138 8.192 18.304 18.253 18.304h91.443c10.112 0 18.278-8.166 18.278-18.304v-27.366h34.381l40.678 81.357c3.072 6.195 9.421 10.086 16.333 10.086h182.81c6.912 0 13.261-3.866 16.333-10.086l40.678-81.357h217.318c10.086 0 18.278-8.192 18.278-18.253v-438.707c0-10.112-8.192-18.304-18.278-18.304zM164.557 179.883h694.835v402.125h-210.304c-6.938 0-13.261 3.917-16.358 10.138l-40.653 81.306h-160.205l-40.653-81.306c-3.123-6.195-9.421-10.138-16.384-10.138h-63.974c-10.086 0-18.278 8.192-18.278 18.33v27.366h-54.81v-27.366c0-10.138-8.192-18.33-18.304-18.33h-54.912v-402.125zM511.898 232.363c-92.006 0-166.861 74.854-166.861 166.886 0 92.006 74.854 166.861 166.861 166.861s166.861-74.854 166.861-166.861c0-92.032-74.854-166.886-166.861-166.886zM511.898 529.502c-71.834 0-130.304-58.419-130.304-130.253s58.496-130.33 130.304-130.33c71.808 0 130.278 58.496 130.278 130.33s-58.47 130.253-130.278 130.253z" />
</font>
</defs>
</svg>
